<?xml version="1.0" standalone="no"?>
<!DOCTYPE svg PUBLIC "-//W3C//DTD SVG 1.1//EN" "http://www.w3.org/Graphics/SVG/1.1/DTD/svg11.dtd" >
<svg xmlns="http://www.w3.org/2000/svg" xmlns:xlink="http://www.w3.org/1999/xlink" version="1.1">
<metadata>
Created by FontForge 20161116 at Tue Feb  3 03:13:27 2015
 By Jimmy Warting
Copyright (c) 2011-2015, Omnibus-Type (www.omnibus-type.com omnibus.type@gmail.com)
</metadata>
<defs>
<font id="Asap-Medium" horiz-adv-x="557" >
  <font-face 
    font-family="Asap Medium"
    font-weight="500"
    font-stretch="normal"
    units-per-em="1000"
    panose-1="2 15 6 4 3 1 2 6 2 3"
    ascent="800"
    descent="-200"
    x-height="523"
    cap-height="703"
    bbox="-369 -240 1272 1016"
    underline-thickness="50"
    underline-position="-100"
    unicode-range="U+000D-FB02"
  />
<missing-glyph horiz-adv-x="514" 
d="M7 700h500v-700h-500v700zM426 650h-340l171 -255zM56 95l171 255l-171 255v-510zM456 95v510l-169 -255zM427 50l-171 255l-169 -255h340z" />
    <glyph glyph-name="f_f" unicode="ff" horiz-adv-x="650" 
d="M319 716q0 -12 -7.5 -37t-19.5 -25q-5 0 -15 2t-20 2q-22 0 -32.5 -11.5t-10.5 -42.5v-81h64q14 0 20 -10.5t6 -32.5v-15q0 -22 -6 -32.5t-20 -10.5h-64v-396q0 -28 -53 -28h-19q-53 0 -53 28v396h-26q-14 0 -20 10.5t-6 32.5v15q0 22 6 32.5t20 10.5h26v82
q0 81 38 117.5t102 36.5q90 0 90 -43zM644 716q0 -12 -7.5 -37t-19.5 -25q-5 0 -15 2t-20 2q-22 0 -32.5 -11.5t-10.5 -42.5v-81h64q14 0 20 -10.5t6 -32.5v-15q0 -22 -6 -32.5t-20 -10.5h-64v-396q0 -28 -53 -28h-19q-53 0 -53 28v396h-26q-14 0 -20 10.5t-6 32.5v15
q0 22 6 32.5t20 10.5h26v82q0 81 38 117.5t102 36.5q90 0 90 -43z" />
    <glyph glyph-name="uniFB01" unicode="fi" horiz-adv-x="563" 
d="M310 716q0 -12 -7.5 -37t-19.5 -25q-5 0 -15 2t-20 2q-22 0 -32.5 -11.5t-10.5 -42.5v-81h64q14 0 20 -10.5t6 -32.5v-15q0 -22 -6 -32.5t-20 -10.5h-64v-396q0 -28 -53 -28h-19q-53 0 -53 28v396h-26q-14 0 -20 10.5t-6 32.5v15q0 22 6 32.5t20 10.5h26v82
q0 81 38 117.5t102 36.5q90 0 90 -43zM495 725v-73q0 -14 -12.5 -21t-40.5 -7h-22q-28 0 -40.5 7t-12.5 21v73q0 28 53 28h22q53 0 53 -28zM494 497v-471q0 -28 -53 -28h-19q-53 0 -53 28v471q0 28 53 28h19q53 0 53 -28z" />
    <glyph glyph-name="uniFB02" unicode="fl" horiz-adv-x="591" 
d="M310 716q0 -12 -7.5 -37t-19.5 -25q-5 0 -15 2t-20 2q-22 0 -32.5 -11.5t-10.5 -42.5v-81h64q14 0 20 -10.5t6 -32.5v-15q0 -22 -6 -32.5t-20 -10.5h-64v-396q0 -28 -53 -28h-19q-53 0 -53 28v396h-26q-14 0 -20 10.5t-6 32.5v15q0 22 6 32.5t20 10.5h26v82
q0 81 38 117.5t102 36.5q90 0 90 -43zM490 725v-577q0 -30 10.5 -42.5t31.5 -12.5q10 0 19.5 2.5t13.5 2.5q12 0 19.5 -25.5t7.5 -37.5q0 -42 -87 -42q-64 0 -102 36.5t-38 116.5v579q0 28 53 28h19q53 0 53 -28z" />
    <glyph glyph-name=".notdef" horiz-adv-x="514" 
d="M7 700h500v-700h-500v700zM426 650h-340l171 -255zM56 95l171 255l-171 255v-510zM456 95v510l-169 -255zM427 50l-171 255l-169 -255h340z" />
    <glyph glyph-name="NULL" horiz-adv-x="0" 
 />
    <glyph glyph-name="nonmarkingreturn" unicode="&#xd;" horiz-adv-x="240" 
 />
    <glyph glyph-name="space" unicode=" " horiz-adv-x="240" 
 />
    <glyph glyph-name="A" unicode="A" horiz-adv-x="613" 
d="M379 683l226 -649q3 -9 3 -16q0 -20 -47 -20h-31q-45 0 -50 19l-47 137h-257l-46 -137q-7 -19 -44 -19h-28q-54 0 -54 20q0 3 4 17l226 648q7 19 51 19h43q44 0 51 -19zM305 550q-8 -42 -15 -62l-76 -222h182l-74 222q-6 16 -9.5 36t-4.5 26h-3z" />
    <glyph glyph-name="Aacute" unicode="&#xc1;" horiz-adv-x="613" 
d="M379 683l226 -649q3 -9 3 -16q0 -20 -47 -20h-31q-45 0 -50 19l-47 137h-257l-46 -137q-7 -19 -44 -19h-28q-54 0 -54 20q0 3 4 17l226 648q7 19 51 19h43q44 0 51 -19zM305 550q-8 -42 -15 -62l-76 -222h182l-74 222q-6 16 -9.5 36t-4.5 26h-3zM429.5 907
q13.5 -3 13.5 -10q0 -6 -11.5 -20t-37.5 -42l-52 -57q-20 -22 -66 -22q-16 0 -22 3t-6 10q0 4 6.5 16.5t13.5 25.5t11 19q34 60 31 54q16 26 77 26q29 0 42.5 -3z" />
    <glyph glyph-name="Abreve" unicode="&#x102;" horiz-adv-x="613" 
d="M379 683l226 -649q3 -9 3 -16q0 -20 -47 -20h-31q-45 0 -50 19l-47 137h-257l-46 -137q-7 -19 -44 -19h-28q-54 0 -54 20q0 3 4 17l226 648q7 19 51 19h43q44 0 51 -19zM305 550q-8 -42 -15 -62l-76 -222h182l-74 222q-6 16 -9.5 36t-4.5 26h-3zM453 869
q0 -48 -42.5 -80.5t-103.5 -32.5t-103.5 32.5t-42.5 80.5q0 23 28 23q10 0 15 -3.5t8.5 -9.5t5.5 -8q23 -33 89 -33q65 0 91 35q2 2 6 8t9 8.5t12 2.5q28 0 28 -23z" />
    <glyph glyph-name="uni1EAE" unicode="&#x1eae;" horiz-adv-x="613" 
d="M404.5 996q8.5 -4 8.5 -16q0 -7 -10.5 -21.5t-50.5 -64.5l-13 -16q-14 -16 -48 -16q-22 0 -22 13q0 5 7 22t19 45l14 32q14 26 67 26q20 0 28.5 -4zM453 859q0 -28 -19.5 -51.5t-53 -37.5t-73.5 -14t-73.5 14t-53 37.5t-19.5 51.5q0 23 28 23q9 0 13.5 -3t8.5 -8t7 -9
q30 -36 89 -36q62 0 91 37q2 3 6.5 8.5t9 8t12.5 2.5q27 0 27 -23zM379 683l226 -649q3 -9 3 -16q0 -20 -47 -20h-31q-45 0 -50 19l-47 137h-257l-46 -137q-7 -19 -44 -19h-28q-54 0 -54 20q0 3 4 17l226 648q7 19 51 19h43q44 0 51 -19zM305 550q-8 -42 -15 -62l-76 -222
h182l-74 222q-6 16 -9.5 36t-4.5 26h-3z" />
    <glyph glyph-name="uni1EB6" unicode="&#x1eb6;" horiz-adv-x="613" 
d="M379 683l226 -649q3 -9 3 -16q0 -20 -47 -20h-31q-45 0 -50 19l-47 137h-257l-46 -137q-7 -19 -44 -19h-28q-54 0 -54 20q0 3 4 17l226 648q7 19 51 19h43q44 0 51 -19zM305 550q-8 -42 -15 -62l-76 -222h182l-74 222q-6 16 -9.5 36t-4.5 26h-3zM453 869
q0 -48 -42.5 -80.5t-103.5 -32.5t-103.5 32.5t-42.5 80.5q0 23 28 23q10 0 15 -3.5t8.5 -9.5t5.5 -8q23 -33 89 -33q65 0 91 35q2 2 6 8t9 8.5t12 2.5q28 0 28 -23zM366 -108v-57q0 -28 -54 -28q-28 0 -40.5 7t-12.5 21v57q0 28 54 28q53 0 53 -28z" />
    <glyph glyph-name="uni1EB0" unicode="&#x1eb0;" horiz-adv-x="613" 
d="M321 973q34 -86 34 -98q0 -7 -6 -10t-22 -3q-36 0 -52 22l-34 47q-19 25 -27 37t-8 18q0 8 9.5 11t32.5 3q61 0 73 -27zM453 859q0 -28 -19.5 -51.5t-53 -37.5t-73.5 -14t-73.5 14t-53 37.5t-19.5 51.5q0 23 28 23q9 0 13.5 -3t8.5 -8t7 -9q30 -36 89 -36q62 0 91 37
q2 3 6.5 8.5t9 8t12.5 2.5q27 0 27 -23zM379 683l226 -649q3 -9 3 -16q0 -20 -47 -20h-31q-45 0 -50 19l-47 137h-257l-46 -137q-7 -19 -44 -19h-28q-54 0 -54 20q0 3 4 17l226 648q7 19 51 19h43q44 0 51 -19zM305 550q-8 -42 -15 -62l-76 -222h182l-74 222q-6 16 -9.5 36
t-4.5 26h-3z" />
    <glyph glyph-name="uni1EB2" unicode="&#x1eb2;" horiz-adv-x="613" 
d="M314 950.5q-8 5.5 -19 5.5q-22 0 -35 -7.5t-15 -7.5q-6 0 -17 14.5t-11 24.5t26 19t53 9q39 0 65 -17.5t26 -49.5q0 -29 -30 -53q-9 -8 -23 -15t-23 -7q-17 0 -29 6t-12 14q0 7 21 19q16 8 23.5 14.5t7.5 16.5q0 9 -8 14.5zM453 859q0 -28 -19.5 -51.5t-53 -37.5
t-73.5 -14t-73.5 14t-53 37.5t-19.5 51.5q0 23 28 23q9 0 13.5 -3t8.5 -8t7 -9q30 -36 89 -36q62 0 91 37q2 3 6.5 8.5t9 8t12.5 2.5q27 0 27 -23zM379 683l226 -649q3 -9 3 -16q0 -20 -47 -20h-31q-45 0 -50 19l-47 137h-257l-46 -137q-7 -19 -44 -19h-28q-54 0 -54 20
q0 3 4 17l226 648q7 19 51 19h43q44 0 51 -19zM305 550q-8 -42 -15 -62l-76 -222h182l-74 222q-6 16 -9.5 36t-4.5 26h-3z" />
    <glyph glyph-name="uni1EB4" unicode="&#x1eb4;" horiz-adv-x="613" 
d="M315 995q18 -6 35.5 -11t28.5 -5q18 0 33 21q11 16 23 16q3 0 11 -2l8 -3q17 -7 17 -22q0 -6 -3 -14q-11 -32 -35 -50.5t-58 -18.5q-22 0 -76 18q-18 6 -35.5 11t-28.5 5q-18 0 -33 -21q-11 -16 -22 -16q-3 0 -11 2l-9 3q-17 7 -17 22q0 7 3 13q12 33 36 51.5t58 18.5
q21 0 75 -18zM453 859q0 -28 -19.5 -51.5t-53 -37.5t-73.5 -14t-73.5 14t-53 37.5t-19.5 51.5q0 23 28 23q9 0 13.5 -3t8.5 -8t7 -9q30 -36 89 -36q62 0 91 37q2 3 6.5 8.5t9 8t12.5 2.5q27 0 27 -23zM379 683l226 -649q3 -9 3 -16q0 -20 -47 -20h-31q-45 0 -50 19l-47 137
h-257l-46 -137q-7 -19 -44 -19h-28q-54 0 -54 20q0 3 4 17l226 648q7 19 51 19h43q44 0 51 -19zM305 550q-8 -42 -15 -62l-76 -222h182l-74 222q-6 16 -9.5 36t-4.5 26h-3z" />
    <glyph glyph-name="Acircumflex" unicode="&#xc2;" horiz-adv-x="613" 
d="M379 683l226 -649q3 -9 3 -16q0 -20 -47 -20h-31q-45 0 -50 19l-47 137h-257l-46 -137q-7 -19 -44 -19h-28q-54 0 -54 20q0 3 4 17l226 648q7 19 51 19h43q44 0 51 -19zM305 550q-8 -42 -15 -62l-76 -222h182l-74 222q-6 16 -9.5 36t-4.5 26h-3zM349 891q13 -4 21 -16
l62 -97q6 -9 6 -16q0 -12 -21 -12h-15q-40 0 -55 20l-41 53l-40 -52q-9 -12 -22.5 -16.5t-32.5 -4.5h-15q-21 0 -21 12q0 7 6 16l62 97q7 12 20.5 16t34.5 4h16q22 0 35 -4z" />
    <glyph glyph-name="uni1EA4" unicode="&#x1ea4;" horiz-adv-x="613" 
d="M540.5 959q8.5 -4 8.5 -16q0 -7 -10.5 -21.5t-50.5 -64.5l-13 -16q-6 -8 -17 -12t-31 -4q-12 0 -17 3t-5 10q0 6 10 28.5t12 28.5l18 41q14 27 67 27q20 0 28.5 -4zM344.5 890.5q11.5 -4.5 17.5 -15.5l57 -97q6 -9 6 -16q0 -12 -21 -12h-15q-48 0 -55 20l-26 53l-40 -52
q-9 -12 -22.5 -16.5t-32.5 -4.5h-15q-21 0 -21 12q0 7 6 16l62 97q7 12 20.5 16t34.5 4h16q17 0 28.5 -4.5zM379 683l226 -649q3 -9 3 -16q0 -20 -47 -20h-31q-45 0 -50 19l-47 137h-257l-46 -137q-7 -19 -44 -19h-28q-54 0 -54 20q0 3 4 17l226 648q7 19 51 19h43
q44 0 51 -19zM305 550q-8 -42 -15 -62l-76 -222h182l-74 222q-6 16 -9.5 36t-4.5 26h-3z" />
    <glyph glyph-name="uni1EAC" unicode="&#x1eac;" horiz-adv-x="613" 
d="M379 683l226 -649q3 -9 3 -16q0 -20 -47 -20h-31q-45 0 -50 19l-47 137h-257l-46 -137q-7 -19 -44 -19h-28q-54 0 -54 20q0 3 4 17l226 648q7 19 51 19h43q44 0 51 -19zM305 550q-8 -42 -15 -62l-76 -222h182l-74 222q-6 16 -9.5 36t-4.5 26h-3zM350 891q13 -4 21 -16
l62 -97q6 -9 6 -16q0 -12 -21 -12h-15q-40 0 -55 20l-41 53l-40 -52q-9 -12 -22.5 -16.5t-32.5 -4.5h-15q-21 0 -21 12q0 7 6 16l62 97q7 12 20.5 16t34.5 4h16q22 0 35 -4zM366 -108v-57q0 -28 -54 -28q-28 0 -40.5 7t-12.5 21v57q0 28 54 28q53 0 53 -28z" />
    <glyph glyph-name="uni1EA6" unicode="&#x1ea6;" horiz-adv-x="613" 
d="M457 936q34 -86 34 -99q0 -7 -6.5 -10t-21.5 -3q-35 0 -52 22l-26 35q-23 33 -33 47.5t-10 20.5q0 7 10 10t32 3q61 0 73 -26zM344.5 890.5q11.5 -4.5 17.5 -15.5l57 -97q6 -9 6 -16q0 -12 -21 -12h-15q-48 0 -55 20l-26 53l-40 -52q-9 -12 -22.5 -16.5t-32.5 -4.5h-15
q-21 0 -21 12q0 7 6 16l62 97q7 12 20.5 16t34.5 4h16q17 0 28.5 -4.5zM379 683l226 -649q3 -9 3 -16q0 -20 -47 -20h-31q-45 0 -50 19l-47 137h-257l-46 -137q-7 -19 -44 -19h-28q-54 0 -54 20q0 3 4 17l226 648q7 19 51 19h43q44 0 51 -19zM305 550q-8 -42 -15 -62
l-76 -222h182l-74 222q-6 16 -9.5 36t-4.5 26h-3z" />
    <glyph glyph-name="uni1EA8" unicode="&#x1ea8;" horiz-adv-x="613" 
d="M450 913.5q-8 5.5 -19 5.5q-22 0 -35 -8t-15 -8q-6 0 -17 15t-11 24q0 10 26 19t53 9q39 0 65 -17.5t26 -49.5q0 -29 -30 -53q-10 -8 -23.5 -15t-22.5 -7q-18 0 -29.5 6.5t-11.5 14.5t21 18q17 9 24 15t7 16t-8 15.5zM344.5 890.5q11.5 -4.5 17.5 -15.5l57 -97
q6 -9 6 -16q0 -12 -21 -12h-15q-48 0 -55 20l-26 53l-40 -52q-9 -12 -22.5 -16.5t-32.5 -4.5h-15q-21 0 -21 12q0 7 6 16l62 97q7 12 20.5 16t34.5 4h16q17 0 28.5 -4.5zM379 683l226 -649q3 -9 3 -16q0 -20 -47 -20h-31q-45 0 -50 19l-47 137h-257l-46 -137q-7 -19 -44 -19
h-28q-54 0 -54 20q0 3 4 17l226 648q7 19 51 19h43q44 0 51 -19zM305 550q-8 -42 -15 -62l-76 -222h182l-74 222q-6 16 -9.5 36t-4.5 26h-3z" />
    <glyph glyph-name="uni1EAA" unicode="&#x1eaa;" horiz-adv-x="613" 
d="M312 995q18 -6 35.5 -11t28.5 -5q19 0 34 21q11 16 23 16q2 0 10 -2l9 -3q17 -7 17 -22q0 -6 -3 -14q-12 -32 -36 -50.5t-57 -18.5q-22 0 -76 18q-18 6 -35.5 11t-28.5 5q-18 0 -33 -21q-11 -16 -22 -16q-3 0 -11 2l-10 3q-16 7 -16 21q0 8 3 14q12 33 35.5 51.5
t57.5 18.5q21 0 75 -18zM347.5 866.5q12.5 -4.5 22.5 -15.5l63 -73q6 -9 6 -16q0 -5 -6 -8.5t-16 -3.5h-15q-15 0 -26 4.5t-29 15.5l-41 36l-40 -35q-4 -3 -14.5 -9t-20 -9t-20.5 -3h-14q-21 0 -21 12q0 7 6 16l61 73q11 11 23.5 15.5t32.5 4.5h16q20 0 32.5 -4.5zM379 683
l226 -649q3 -9 3 -16q0 -20 -47 -20h-31q-45 0 -50 19l-47 137h-257l-46 -137q-7 -19 -44 -19h-28q-54 0 -54 20q0 3 4 17l226 648q7 19 51 19h43q44 0 51 -19zM305 550q-8 -42 -15 -62l-76 -222h182l-74 222q-6 16 -9.5 36t-4.5 26h-3z" />
    <glyph glyph-name="Adieresis" unicode="&#xc4;" horiz-adv-x="613" 
d="M379 683l226 -649q3 -9 3 -16q0 -20 -47 -20h-31q-45 0 -50 19l-47 137h-257l-46 -137q-7 -19 -44 -19h-28q-54 0 -54 20q0 3 4 17l226 648q7 19 51 19h43q44 0 51 -19zM305 550q-8 -42 -15 -62l-76 -222h182l-74 222q-6 16 -9.5 36t-4.5 26h-3zM277 851v-57
q0 -28 -54 -28q-28 0 -40.5 7t-12.5 21v57q0 28 54 28q53 0 53 -28zM444 851v-57q0 -28 -54 -28q-28 0 -40.5 7t-12.5 21v57q0 28 54 28q53 0 53 -28z" />
    <glyph glyph-name="uni1EA0" unicode="&#x1ea0;" horiz-adv-x="613" 
d="M379 683l226 -649q3 -9 3 -16q0 -20 -47 -20h-31q-45 0 -50 19l-47 137h-257l-46 -137q-7 -19 -44 -19h-28q-54 0 -54 20q0 3 4 17l226 648q7 19 51 19h43q44 0 51 -19zM305 550q-8 -42 -15 -62l-76 -222h182l-74 222q-6 16 -9.5 36t-4.5 26h-3zM366 -108v-57
q0 -28 -54 -28q-28 0 -40.5 7t-12.5 21v57q0 28 54 28q53 0 53 -28z" />
    <glyph glyph-name="Agrave" unicode="&#xc0;" horiz-adv-x="613" 
d="M379 683l226 -649q3 -9 3 -16q0 -20 -47 -20h-31q-45 0 -50 19l-47 137h-257l-46 -137q-7 -19 -44 -19h-28q-54 0 -54 20q0 3 4 17l226 648q7 19 51 19h43q44 0 51 -19zM305 550q-8 -42 -15 -62l-76 -222h182l-74 222q-6 16 -9.5 36t-4.5 26h-3zM311 884q24 -43 37 -64
q12 -20 19 -33t7 -18q0 -7 -6 -10t-22 -3q-47 0 -67 22l-53 58q-25 28 -36 41.5t-11 19.5q0 7 13.5 10t42.5 3q62 0 76 -26z" />
    <glyph glyph-name="uni1EA2" unicode="&#x1ea2;" horiz-adv-x="613" 
d="M379 683l226 -649q3 -9 3 -16q0 -20 -47 -20h-31q-45 0 -50 19l-47 137h-257l-46 -137q-7 -19 -44 -19h-28q-54 0 -54 20q0 3 4 17l226 648q7 19 51 19h43q44 0 51 -19zM305 550q-8 -42 -15 -62l-76 -222h182l-74 222q-6 16 -9.5 36t-4.5 26h-3zM333 863.5
q-10 6.5 -24 6.5q-16 0 -28.5 -6t-14.5 -6q-6 0 -17 14.5t-11 24.5t26.5 20.5t52.5 10.5q46 0 75 -19.5t29 -56.5q0 -26 -19.5 -51t-43.5 -41t-34 -16q-13 0 -29.5 7.5t-16.5 13.5q0 7 6 13t20 17q19 15 29 26t10 25q0 11 -10 17.5z" />
    <glyph glyph-name="Amacron" unicode="&#x100;" horiz-adv-x="613" 
d="M379 683l226 -649q3 -9 3 -16q0 -20 -47 -20h-31q-45 0 -50 19l-47 137h-257l-46 -137q-7 -19 -44 -19h-28q-54 0 -54 20q0 3 4 17l226 648q7 19 51 19h43q44 0 51 -19zM305 550q-8 -42 -15 -62l-76 -222h182l-74 222q-6 16 -9.5 36t-4.5 26h-3zM436.5 856.5
q6.5 -8.5 6.5 -27.5v-13q0 -20 -6.5 -28.5t-20.5 -8.5h-218q-14 0 -20 9t-6 28v13q0 19 6 27.5t20 8.5h218q14 0 20.5 -8.5z" />
    <glyph glyph-name="Aogonek" unicode="&#x104;" horiz-adv-x="613" 
d="M685 -131q0 -30 -22.5 -41t-59.5 -11q-70 0 -94 33t-24 69q0 19 5.5 42t18.5 38q-25 5 -29 18l-47 137h-257l-46 -137q-7 -19 -44 -19h-28q-54 0 -54 20q0 3 4 17l226 648q7 19 51 19h43q44 0 51 -19l226 -649q3 -9 3 -16q0 -20 -45 -20v-2q0 -4 -4 -20q-7 -23 -7 -38
q0 -32 18 -41.5t44 -9.5q15 0 28 5q14 4 22 4q21 0 21 -27zM396 266l-74 222q-6 16 -9.5 36t-4.5 26h-3q-8 -42 -15 -62l-76 -222h182z" />
    <glyph glyph-name="Aring" unicode="&#xc5;" horiz-adv-x="613" 
d="M379 683l226 -649q3 -9 3 -16q0 -20 -47 -20h-31q-45 0 -50 19l-47 137h-257l-46 -137q-7 -19 -44 -19h-28q-54 0 -54 20q0 3 4 17l226 648q7 19 51 19h43q44 0 51 -19zM305 550q-8 -42 -15 -62l-76 -222h182l-74 222q-6 16 -9.5 36t-4.5 26h-3zM373.5 892.5
q27.5 -27.5 27.5 -66.5q0 -40 -27.5 -67t-66.5 -27q-40 0 -67 27t-27 67q0 39 27 66.5t67 27.5q39 0 66.5 -27.5zM278 854.5q-12 -12.5 -12 -29.5t12 -29t29 -12t29 12t12 29t-12 29.5t-29 12.5t-29 -12.5z" />
    <glyph glyph-name="Aringacute" unicode="&#x1fa;" horiz-adv-x="613" 
d="M269 819q-6 3 -6 10q20 41 40 75q14 26 76 26q29 0 42.5 -3t13.5 -10q0 -4 -6.5 -11.5t-22.5 -21.5l-49 -46q-20 -22 -66 -22q-16 0 -22 3zM608 18q0 -20 -47 -20h-31q-45 0 -50 19l-47 137h-257l-46 -137q-7 -19 -44 -19h-28q-54 0 -54 20q0 3 4 17l216 620
q-11 22 -11 46q0 39 27 66.5t67 27.5q39 0 66.5 -27.5t27.5 -66.5q0 -26 -12 -47l216 -620q3 -9 3 -16zM278 729.5q-12 -12.5 -12 -29.5t12 -29t29 -12t29 12t12 29t-12 29.5t-29 12.5t-29 -12.5zM396 266l-74 222q-6 16 -9.5 36t-4.5 26h-3q-8 -42 -15 -62l-76 -222h182z
" />
    <glyph glyph-name="Atilde" unicode="&#xc3;" horiz-adv-x="613" 
d="M379 683l226 -649q3 -9 3 -16q0 -20 -47 -20h-31q-45 0 -50 19l-47 137h-257l-46 -137q-7 -19 -44 -19h-28q-54 0 -54 20q0 3 4 17l226 648q7 19 51 19h43q44 0 51 -19zM305 550q-8 -42 -15 -62l-76 -222h182l-74 222q-6 16 -9.5 36t-4.5 26h-3zM266.5 864
q23.5 -6 46.5 -13q48 -15 68 -16q21 0 37 21q13 16 25 16q4 0 12 -2l10 -3q18 -6 18 -21q0 -6 -3 -14q-12 -32 -38.5 -51t-63.5 -19q-25 0 -85 18q-19 6 -38 11t-31 5q-21 0 -37 -21q-12 -16 -24 -16q-4 0 -12 2l-11 4q-18 6 -18 22q0 7 3 13q13 32 39.5 51t63.5 19
q15 0 38.5 -6z" />
    <glyph glyph-name="AE" unicode="&#xc6;" horiz-adv-x="915" 
d="M842 689.5q6 -10.5 6 -32.5v-25q0 -22 -6 -32.5t-20 -10.5h-333l36 -175h269q14 0 20 -10.5t6 -32.5v-25q0 -22 -6 -32.5t-20 -10.5h-247l39 -192h237q14 0 20 -10.5t6 -32.5v-25q0 -22 -6 -32.5t-20 -10.5h-315q-16 0 -24 7t-11 23l-25 124h-262l-68 -137
q-9 -19 -43 -19h-26q-53 0 -53 20q0 9 4 17l321 638q8 14 18 20.5t26 6.5h457q14 0 20 -10.5zM378 564l-26 -74l-110 -224h185l-44 224l-2 74h-3z" />
    <glyph glyph-name="AEacute" unicode="&#x1fc;" horiz-adv-x="915" 
d="M842 689.5q6 -10.5 6 -32.5v-25q0 -22 -6 -32.5t-20 -10.5h-333l36 -175h269q14 0 20 -10.5t6 -32.5v-25q0 -22 -6 -32.5t-20 -10.5h-247l39 -192h237q14 0 20 -10.5t6 -32.5v-25q0 -22 -6 -32.5t-20 -10.5h-315q-16 0 -24 7t-11 23l-25 124h-262l-68 -137
q-9 -19 -43 -19h-26q-53 0 -53 20q0 9 4 17l321 638q8 14 18 20.5t26 6.5h457q14 0 20 -10.5zM378 564l-26 -74l-110 -224h185l-44 224l-2 74h-3zM580.5 907q13.5 -3 13.5 -10q0 -6 -11.5 -20t-37.5 -42l-52 -57q-20 -22 -66 -22q-16 0 -22 3t-6 10q0 4 6.5 16.5t13.5 25.5
t11 19q34 60 31 54q16 26 77 26q29 0 42.5 -3z" />
    <glyph glyph-name="B" unicode="B" horiz-adv-x="593" 
d="M480.5 652.5q57.5 -47.5 57.5 -129.5q0 -50 -31.5 -92.5t-77.5 -59.5l1 -4q28 -6 60 -27.5t54.5 -57t22.5 -80.5q0 -99 -64 -150.5t-190 -51.5h-198q-19 0 -27.5 8.5t-8.5 27.5v628q0 19 8.5 27.5t27.5 8.5h191q117 0 174.5 -47.5zM209 590v-177h86q50 0 79.5 25.5
t29.5 64.5q0 44 -26.5 65.5t-82.5 21.5h-86zM209 302v-191h115q52 0 80.5 26t28.5 72q0 45 -32 69t-93 24h-99z" />
    <glyph glyph-name="C" unicode="C" horiz-adv-x="619" 
d="M472.5 698q47.5 -9 78.5 -24.5t31 -33.5q0 -12 -9.5 -31.5t-22 -34.5t-22.5 -15q-3 0 -24.5 10.5t-52.5 18.5t-73 8q-100 0 -147.5 -60.5t-47.5 -185.5q0 -124 47.5 -185t144.5 -61q46 0 80 10t66 25q16 8 21 8q11 0 23 -14.5t20 -33t8 -27.5q0 -23 -34 -41t-84.5 -28
t-99.5 -10q-167 0 -246.5 87t-79.5 271q0 356 330 356q46 0 93.5 -9z" />
    <glyph glyph-name="Cacute" unicode="&#x106;" horiz-adv-x="619" 
d="M472.5 698q47.5 -9 78.5 -24.5t31 -33.5q0 -12 -9.5 -31.5t-22 -34.5t-22.5 -15q-3 0 -24.5 10.5t-52.5 18.5t-73 8q-100 0 -147.5 -60.5t-47.5 -185.5q0 -124 47.5 -185t144.5 -61q46 0 80 10t66 25q16 8 21 8q11 0 23 -14.5t20 -33t8 -27.5q0 -23 -34 -41t-84.5 -28
t-99.5 -10q-167 0 -246.5 87t-79.5 271q0 356 330 356q46 0 93.5 -9zM485.5 907q13.5 -3 13.5 -10q0 -6 -11.5 -20t-37.5 -42l-52 -57q-20 -22 -66 -22q-16 0 -22 3t-6 10q0 4 6.5 16.5t13.5 25.5t11 19q34 60 31 54q16 26 77 26q29 0 42.5 -3z" />
    <glyph glyph-name="Ccaron" unicode="&#x10c;" horiz-adv-x="619" 
d="M472.5 698q47.5 -9 78.5 -24.5t31 -33.5q0 -12 -9.5 -31.5t-22 -34.5t-22.5 -15q-3 0 -24.5 10.5t-52.5 18.5t-73 8q-100 0 -147.5 -60.5t-47.5 -185.5q0 -124 47.5 -185t144.5 -61q46 0 80 10t66 25q16 8 21 8q11 0 23 -14.5t20 -33t8 -27.5q0 -23 -34 -41t-84.5 -28
t-99.5 -10q-167 0 -246.5 87t-79.5 271q0 356 330 356q46 0 93.5 -9zM495 885q0 -6 -6 -15l-62 -97q-8 -12 -21 -16t-35 -4h-16q-21 0 -34.5 4t-20.5 16l-62 97q-6 9 -6 16q0 11 21 11h15q39 0 55 -20l40 -52l41 52q14 20 55 20h15q21 0 21 -12z" />
    <glyph glyph-name="Ccedilla" unicode="&#xc7;" horiz-adv-x="619" 
d="M531.5 19q-61.5 -22 -135.5 -25l-9 -34q32 -3 57 -20.5t25 -54.5q0 -96 -118 -96q-44 0 -84.5 13t-40.5 34q0 18 9 28t18 10q8 0 30 -8q35 -13 58 -13q36 0 36 24q0 11 -7.5 17t-23.5 12q-13 5 -19.5 9.5t-6.5 12.5t18 66q-148 9 -218.5 96t-70.5 261q0 356 330 356
q46 0 93.5 -9t78.5 -24.5t31 -33.5q0 -12 -9.5 -31.5t-22 -34.5t-22.5 -15q-3 0 -24.5 10.5t-52.5 18.5t-73 8q-100 0 -147.5 -60.5t-47.5 -185.5q0 -124 47.5 -185t144.5 -61q46 0 80 10t66 25q16 8 21 8q11 0 23 -14.5t20 -33t8 -27.5q0 -31 -61.5 -53z" />
    <glyph glyph-name="Ccircumflex" unicode="&#x108;" horiz-adv-x="619" 
d="M472.5 698q47.5 -9 78.5 -24.5t31 -33.5q0 -12 -9.5 -31.5t-22 -34.5t-22.5 -15q-3 0 -24.5 10.5t-52.5 18.5t-73 8q-100 0 -147.5 -60.5t-47.5 -185.5q0 -124 47.5 -185t144.5 -61q46 0 80 10t66 25q16 8 21 8q11 0 23 -14.5t20 -33t8 -27.5q0 -23 -34 -41t-84.5 -28
t-99.5 -10q-167 0 -246.5 87t-79.5 271q0 356 330 356q46 0 93.5 -9zM406 891q13 -4 21 -16l62 -97q6 -9 6 -16q0 -12 -21 -12h-15q-40 0 -55 20l-41 53l-40 -52q-9 -12 -22.5 -16.5t-32.5 -4.5h-15q-21 0 -21 12q0 7 6 16l62 97q7 12 20.5 16t34.5 4h16q22 0 35 -4z" />
    <glyph glyph-name="Cdotaccent" unicode="&#x10a;" horiz-adv-x="619" 
d="M472.5 698q47.5 -9 78.5 -24.5t31 -33.5q0 -12 -9.5 -31.5t-22 -34.5t-22.5 -15q-3 0 -24.5 10.5t-52.5 18.5t-73 8q-100 0 -147.5 -60.5t-47.5 -185.5q0 -124 47.5 -185t144.5 -61q46 0 80 10t66 25q16 8 21 8q11 0 23 -14.5t20 -33t8 -27.5q0 -23 -34 -41t-84.5 -28
t-99.5 -10q-167 0 -246.5 87t-79.5 271q0 356 330 356q46 0 93.5 -9zM417 851v-57q0 -28 -54 -28q-28 0 -40.5 7t-12.5 21v57q0 28 54 28q53 0 53 -28z" />
    <glyph glyph-name="D" unicode="D" horiz-adv-x="695" 
d="M563.5 612q83.5 -88 83.5 -262t-83.5 -262t-232.5 -88h-216q-19 0 -27.5 8.5t-8.5 27.5v628q0 19 8.5 27.5t27.5 8.5h216q149 0 232.5 -88zM210 589v-478h119q88 0 136.5 60t48.5 179t-48.5 179t-136.5 60h-119z" />
    <glyph glyph-name="uni01F1" unicode="&#x1f1;" horiz-adv-x="1311" 
d="M563.5 612q83.5 -88 83.5 -262t-83.5 -262t-232.5 -88h-216q-19 0 -27.5 8.5t-8.5 27.5v628q0 19 8.5 27.5t27.5 8.5h216q149 0 232.5 -88zM210 589v-478h119q88 0 136.5 60t48.5 179t-48.5 179t-136.5 60h-119zM1260.5 670.5q11.5 -29.5 11.5 -48.5q0 -5 -2 -9
l-362 -502h337q14 0 20 -10.5t6 -33.5v-23q0 -23 -6 -33.5t-20 -10.5h-485q-11 0 -22.5 28t-11.5 48q0 5 2 11l363 502h-308q-14 0 -20.5 10.5t-6.5 33.5v23q0 23 6.5 33.5t20.5 10.5h457q9 0 20.5 -29.5z" />
    <glyph glyph-name="uni01C4" unicode="&#x1c4;" horiz-adv-x="1311" 
d="M563.5 612q83.5 -88 83.5 -262t-83.5 -262t-232.5 -88h-216q-19 0 -27.5 8.5t-8.5 27.5v628q0 19 8.5 27.5t27.5 8.5h216q149 0 232.5 -88zM210 589v-478h119q88 0 136.5 60t48.5 179t-48.5 179t-136.5 60h-119zM1260.5 670.5q11.5 -29.5 11.5 -48.5q0 -5 -2 -9
l-362 -502h337q14 0 20 -10.5t6 -33.5v-23q0 -23 -6 -33.5t-20 -10.5h-485q-11 0 -22.5 28t-11.5 48q0 5 2 11l363 502h-308q-14 0 -20.5 10.5t-6.5 33.5v23q0 23 6.5 33.5t20.5 10.5h457q9 0 20.5 -29.5zM1135 885q0 -6 -6 -15l-62 -97q-8 -12 -21 -16t-35 -4h-16
q-21 0 -34.5 4t-20.5 16l-62 97q-6 9 -6 16q0 11 21 11h15q39 0 55 -20l40 -52l41 52q14 20 55 20h15q21 0 21 -12z" />
    <glyph glyph-name="Eth" unicode="&#xd0;" horiz-adv-x="696" 
d="M566.5 612q83.5 -88 83.5 -262t-83.5 -262t-232.5 -88h-221q-19 0 -28 8.5t-9 27.5v266h-42q-14 0 -20 10t-6 32v25q0 22 6 32.5t20 10.5h42v252q0 19 9 27.5t28 8.5h221q149 0 232.5 -88zM207 589v-177h78q14 0 20 -10.5t6 -32.5v-25q0 -22 -6 -32t-20 -10h-78v-191h124
q87 0 136.5 60t49.5 179t-49.5 179t-136.5 60h-124z" />
    <glyph glyph-name="Dcaron" unicode="&#x10e;" horiz-adv-x="695" 
d="M563.5 612q83.5 -88 83.5 -262t-83.5 -262t-232.5 -88h-216q-19 0 -27.5 8.5t-8.5 27.5v628q0 19 8.5 27.5t27.5 8.5h216q149 0 232.5 -88zM210 589v-478h119q88 0 136.5 60t48.5 179t-48.5 179t-136.5 60h-119zM457 885q0 -6 -6 -15l-62 -97q-8 -12 -21 -16t-35 -4h-16
q-21 0 -34.5 4t-20.5 16l-62 97q-6 9 -6 16q0 11 21 11h15q39 0 55 -20l40 -52l41 52q14 20 55 20h15q21 0 21 -12z" />
    <glyph glyph-name="Dcroat" unicode="&#x110;" horiz-adv-x="696" 
d="M566.5 612q83.5 -88 83.5 -262t-83.5 -262t-232.5 -88h-221q-19 0 -28 8.5t-9 27.5v266h-42q-14 0 -20 10t-6 32v25q0 22 6 32.5t20 10.5h42v252q0 19 9 27.5t28 8.5h221q149 0 232.5 -88zM207 589v-177h78q14 0 20 -10.5t6 -32.5v-25q0 -22 -6 -32t-20 -10h-78v-191h124
q87 0 136.5 60t49.5 179t-49.5 179t-136.5 60h-124z" />
    <glyph glyph-name="uni1E0C" unicode="&#x1e0c;" horiz-adv-x="695" 
d="M563.5 612q83.5 -88 83.5 -262t-83.5 -262t-232.5 -88h-216q-19 0 -27.5 8.5t-8.5 27.5v628q0 19 8.5 27.5t27.5 8.5h216q149 0 232.5 -88zM210 589v-478h119q88 0 136.5 60t48.5 179t-48.5 179t-136.5 60h-119zM386 -108v-57q0 -28 -54 -28q-28 0 -40.5 7t-12.5 21v57
q0 28 54 28q53 0 53 -28z" />
    <glyph glyph-name="uni01F2" unicode="&#x1f2;" horiz-adv-x="1184" 
d="M563.5 612q83.5 -88 83.5 -262t-83.5 -262t-232.5 -88h-216q-19 0 -27.5 8.5t-8.5 27.5v628q0 19 8.5 27.5t27.5 8.5h216q149 0 232.5 -88zM210 589v-478h119q88 0 136.5 60t48.5 179t-48.5 179t-136.5 60h-119zM1139 498.5q9 -24.5 9 -43.5q0 -7 -2 -13l-251 -341h230
q14 0 20 -10.5t6 -32.5v-15q0 -22 -6 -32.5t-20 -10.5h-373q-8 0 -17 24t-9 43q0 9 3 13l252 342h-211q-14 0 -20.5 10t-6.5 33v15q0 23 6.5 33t20.5 10h353q7 0 16 -24.5z" />
    <glyph glyph-name="uni01C5" unicode="&#x1c5;" horiz-adv-x="1184" 
d="M563.5 612q83.5 -88 83.5 -262t-83.5 -262t-232.5 -88h-216q-19 0 -27.5 8.5t-8.5 27.5v628q0 19 8.5 27.5t27.5 8.5h216q149 0 232.5 -88zM210 589v-478h119q88 0 136.5 60t48.5 179t-48.5 179t-136.5 60h-119zM1139 498.5q9 -24.5 9 -43.5q0 -7 -2 -13l-251 -341h230
q14 0 20 -10.5t6 -32.5v-15q0 -22 -6 -32.5t-20 -10.5h-373q-8 0 -17 24t-9 43q0 9 3 13l252 342h-211q-14 0 -20.5 10t-6.5 33v15q0 23 6.5 33t20.5 10h353q7 0 16 -24.5zM1072 708q0 -6 -6 -15l-62 -97q-8 -12 -21 -16t-35 -4h-16q-21 0 -34.5 4t-20.5 16l-62 97
q-6 9 -6 16q0 11 21 11h15q39 0 55 -20l40 -52l41 52q14 20 55 20h15q21 0 21 -12z" />
    <glyph glyph-name="E" unicode="E" horiz-adv-x="546" 
d="M495.5 690q6.5 -10 6.5 -33v-25q0 -23 -6.5 -33t-20.5 -10h-266v-175h238q14 0 20 -10t6 -33v-25q0 -23 -6 -33t-20 -10h-238v-192h267q14 0 20.5 -10t6.5 -33v-25q0 -23 -6.5 -33t-20.5 -10h-361q-19 0 -27.5 8.5t-8.5 27.5v628q0 19 8.5 27.5t27.5 8.5h360
q14 0 20.5 -10z" />
    <glyph glyph-name="Eacute" unicode="&#xc9;" horiz-adv-x="546" 
d="M495.5 690q6.5 -10 6.5 -33v-25q0 -23 -6.5 -33t-20.5 -10h-266v-175h238q14 0 20 -10t6 -33v-25q0 -23 -6 -33t-20 -10h-238v-192h267q14 0 20.5 -10t6.5 -33v-25q0 -23 -6.5 -33t-20.5 -10h-361q-19 0 -27.5 8.5t-8.5 27.5v628q0 19 8.5 27.5t27.5 8.5h360
q14 0 20.5 -10zM417.5 907q13.5 -3 13.5 -10q0 -6 -11.5 -20t-37.5 -42l-52 -57q-20 -22 -66 -22q-16 0 -22 3t-6 10q0 4 6.5 16.5t13.5 25.5t11 19q34 60 31 54q16 26 77 26q29 0 42.5 -3z" />
    <glyph glyph-name="Ebreve" unicode="&#x114;" horiz-adv-x="546" 
d="M495.5 690q6.5 -10 6.5 -33v-25q0 -23 -6.5 -33t-20.5 -10h-266v-175h238q14 0 20 -10t6 -33v-25q0 -23 -6 -33t-20 -10h-238v-192h267q14 0 20.5 -10t6.5 -33v-25q0 -23 -6.5 -33t-20.5 -10h-361q-19 0 -27.5 8.5t-8.5 27.5v628q0 19 8.5 27.5t27.5 8.5h360
q14 0 20.5 -10zM442 869q0 -48 -42.5 -80.5t-103.5 -32.5t-103.5 32.5t-42.5 80.5q0 23 28 23q10 0 15 -3.5t8.5 -9.5t5.5 -8q23 -33 89 -33q65 0 91 35q2 2 6 8t9 8.5t12 2.5q28 0 28 -23z" />
    <glyph glyph-name="Ecaron" unicode="&#x11a;" horiz-adv-x="546" 
d="M495.5 690q6.5 -10 6.5 -33v-25q0 -23 -6.5 -33t-20.5 -10h-266v-175h238q14 0 20 -10t6 -33v-25q0 -23 -6 -33t-20 -10h-238v-192h267q14 0 20.5 -10t6.5 -33v-25q0 -23 -6.5 -33t-20.5 -10h-361q-19 0 -27.5 8.5t-8.5 27.5v628q0 19 8.5 27.5t27.5 8.5h360
q14 0 20.5 -10zM427 885q0 -6 -6 -15l-62 -97q-8 -12 -21 -16t-35 -4h-16q-21 0 -34.5 4t-20.5 16l-62 97q-6 9 -6 16q0 11 21 11h15q39 0 55 -20l40 -52l41 52q14 20 55 20h15q21 0 21 -12z" />
    <glyph glyph-name="Ecircumflex" unicode="&#xca;" horiz-adv-x="546" 
d="M495.5 690q6.5 -10 6.5 -33v-25q0 -23 -6.5 -33t-20.5 -10h-266v-175h238q14 0 20 -10t6 -33v-25q0 -23 -6 -33t-20 -10h-238v-192h267q14 0 20.5 -10t6.5 -33v-25q0 -23 -6.5 -33t-20.5 -10h-361q-19 0 -27.5 8.5t-8.5 27.5v628q0 19 8.5 27.5t27.5 8.5h360
q14 0 20.5 -10zM338 891q13 -4 21 -16l62 -97q6 -9 6 -16q0 -12 -21 -12h-15q-40 0 -55 20l-41 53l-40 -52q-9 -12 -22.5 -16.5t-32.5 -4.5h-15q-21 0 -21 12q0 7 6 16l62 97q7 12 20.5 16t34.5 4h16q22 0 35 -4z" />
    <glyph glyph-name="uni1EBE" unicode="&#x1ebe;" horiz-adv-x="546" 
d="M529 958.5q9 -4.5 9 -15.5q0 -6 -11 -21t-34 -44l-29 -37q-7 -8 -17.5 -12t-30.5 -4q-12 0 -17 3t-5 10q0 6 10 28.5t12 28.5l18 41q14 27 67 27q19 0 28 -4.5zM333 890.5q11 -4.5 18 -15.5l57 -97q6 -9 6 -16q0 -5 -6 -8.5t-16 -3.5h-15q-46 0 -55 20l-26 53l-40 -52
q-9 -12 -22 -16.5t-33 -4.5h-14q-21 0 -21 12q0 7 6 16l61 97q8 12 21 16t35 4h16q17 0 28 -4.5zM495.5 690q6.5 -10 6.5 -33v-25q0 -23 -6.5 -33t-20.5 -10h-266v-175h238q14 0 20 -10t6 -33v-25q0 -23 -6 -33t-20 -10h-238v-192h267q14 0 20.5 -10t6.5 -33v-25
q0 -23 -6.5 -33t-20.5 -10h-361q-19 0 -27.5 8.5t-8.5 27.5v628q0 19 8.5 27.5t27.5 8.5h360q14 0 20.5 -10z" />
    <glyph glyph-name="uni1EC6" unicode="&#x1ec6;" horiz-adv-x="546" 
d="M495.5 690q6.5 -10 6.5 -33v-25q0 -23 -6.5 -33t-20.5 -10h-266v-175h238q14 0 20 -10t6 -33v-25q0 -23 -6 -33t-20 -10h-238v-192h267q14 0 20.5 -10t6.5 -33v-25q0 -23 -6.5 -33t-20.5 -10h-361q-19 0 -27.5 8.5t-8.5 27.5v628q0 19 8.5 27.5t27.5 8.5h360
q14 0 20.5 -10zM338 891q13 -4 21 -16l62 -97q6 -9 6 -16q0 -12 -21 -12h-15q-40 0 -55 20l-41 53l-40 -52q-9 -12 -22.5 -16.5t-32.5 -4.5h-15q-21 0 -21 12q0 7 6 16l62 97q7 12 20.5 16t34.5 4h16q22 0 35 -4zM348 -108v-57q0 -28 -54 -28q-28 0 -40.5 7t-12.5 21v57
q0 28 54 28q53 0 53 -28z" />
    <glyph glyph-name="uni1EC0" unicode="&#x1ec0;" horiz-adv-x="546" 
d="M445 936q35 -85 35 -99q0 -7 -6.5 -10t-21.5 -3q-35 0 -53 22l-37 51q-17 24 -24.5 35t-7.5 17q0 7 10 10t33 3q62 0 72 -26zM333 890.5q11 -4.5 18 -15.5l57 -97q6 -9 6 -16q0 -5 -6 -8.5t-16 -3.5h-15q-46 0 -55 20l-26 53l-40 -52q-9 -12 -22 -16.5t-33 -4.5h-14
q-21 0 -21 12q0 7 6 16l61 97q8 12 21 16t35 4h16q17 0 28 -4.5zM495.5 690q6.5 -10 6.5 -33v-25q0 -23 -6.5 -33t-20.5 -10h-266v-175h238q14 0 20 -10t6 -33v-25q0 -23 -6 -33t-20 -10h-238v-192h267q14 0 20.5 -10t6.5 -33v-25q0 -23 -6.5 -33t-20.5 -10h-361
q-19 0 -27.5 8.5t-8.5 27.5v628q0 19 8.5 27.5t27.5 8.5h360q14 0 20.5 -10z" />
    <glyph glyph-name="uni1EC2" unicode="&#x1ec2;" horiz-adv-x="546" 
d="M439 913.5q-8 5.5 -19 5.5q-21 0 -34.5 -8t-16.5 -8q-6 0 -16.5 14.5t-10.5 24.5t26 19t53 9q39 0 64.5 -17.5t25.5 -49.5q0 -30 -29 -53q-10 -8 -23.5 -15t-22.5 -7q-18 0 -30 6.5t-12 14.5t22 18q17 9 24 15t7 16t-8 15.5zM333 890.5q11 -4.5 18 -15.5l57 -97
q6 -9 6 -16q0 -5 -6 -8.5t-16 -3.5h-15q-46 0 -55 20l-26 53l-40 -52q-9 -12 -22 -16.5t-33 -4.5h-14q-21 0 -21 12q0 7 6 16l61 97q8 12 21 16t35 4h16q17 0 28 -4.5zM495.5 690q6.5 -10 6.5 -33v-25q0 -23 -6.5 -33t-20.5 -10h-266v-175h238q14 0 20 -10t6 -33v-25
q0 -23 -6 -33t-20 -10h-238v-192h267q14 0 20.5 -10t6.5 -33v-25q0 -23 -6.5 -33t-20.5 -10h-361q-19 0 -27.5 8.5t-8.5 27.5v628q0 19 8.5 27.5t27.5 8.5h360q14 0 20.5 -10z" />
    <glyph glyph-name="uni1EC4" unicode="&#x1ec4;" horiz-adv-x="546" 
d="M301 995q18 -6 35.5 -11t28.5 -5q19 0 33 21q12 16 23 16q3 0 11 -2l9 -3q17 -7 17 -22q0 -6 -3 -14q-12 -32 -36 -50.5t-58 -18.5q-22 0 -76 18q-18 6 -35.5 11t-28.5 5q-18 0 -32 -21q-12 -16 -22 -16q-3 0 -11 2l-10 3q-17 7 -17 22q0 7 3 13q12 33 36 51.5t58 18.5
q21 0 75 -18zM336 866.5q13 -4.5 23 -15.5l62 -73q6 -9 6 -16q0 -12 -21 -12h-15q-15 0 -26 4.5t-29 15.5l-41 36l-40 -35q-4 -3 -14.5 -9t-20 -9t-20.5 -3h-15q-21 0 -21 12q0 7 6 16l62 73q11 11 23.5 15.5t31.5 4.5h17q19 0 32 -4.5zM495.5 690q6.5 -10 6.5 -33v-25
q0 -23 -6.5 -33t-20.5 -10h-266v-175h238q14 0 20 -10t6 -33v-25q0 -23 -6 -33t-20 -10h-238v-192h267q14 0 20.5 -10t6.5 -33v-25q0 -23 -6.5 -33t-20.5 -10h-361q-19 0 -27.5 8.5t-8.5 27.5v628q0 19 8.5 27.5t27.5 8.5h360q14 0 20.5 -10z" />
    <glyph glyph-name="Edieresis" unicode="&#xcb;" horiz-adv-x="546" 
d="M495.5 690q6.5 -10 6.5 -33v-25q0 -23 -6.5 -33t-20.5 -10h-266v-175h238q14 0 20 -10t6 -33v-25q0 -23 -6 -33t-20 -10h-238v-192h267q14 0 20.5 -10t6.5 -33v-25q0 -23 -6.5 -33t-20.5 -10h-361q-19 0 -27.5 8.5t-8.5 27.5v628q0 19 8.5 27.5t27.5 8.5h360
q14 0 20.5 -10zM265 851v-57q0 -28 -54 -28q-28 0 -40.5 7t-12.5 21v57q0 28 54 28q53 0 53 -28zM432 851v-57q0 -28 -54 -28q-28 0 -40.5 7t-12.5 21v57q0 28 54 28q53 0 53 -28z" />
    <glyph glyph-name="Edotaccent" unicode="&#x116;" horiz-adv-x="546" 
d="M495.5 690q6.5 -10 6.5 -33v-25q0 -23 -6.5 -33t-20.5 -10h-266v-175h238q14 0 20 -10t6 -33v-25q0 -23 -6 -33t-20 -10h-238v-192h267q14 0 20.5 -10t6.5 -33v-25q0 -23 -6.5 -33t-20.5 -10h-361q-19 0 -27.5 8.5t-8.5 27.5v628q0 19 8.5 27.5t27.5 8.5h360
q14 0 20.5 -10zM349 851v-57q0 -28 -54 -28q-28 0 -40.5 7t-12.5 21v57q0 28 54 28q53 0 53 -28z" />
    <glyph glyph-name="uni1EB8" unicode="&#x1eb8;" horiz-adv-x="546" 
d="M495.5 690q6.5 -10 6.5 -33v-25q0 -23 -6.5 -33t-20.5 -10h-266v-175h238q14 0 20 -10t6 -33v-25q0 -23 -6 -33t-20 -10h-238v-192h267q14 0 20.5 -10t6.5 -33v-25q0 -23 -6.5 -33t-20.5 -10h-361q-19 0 -27.5 8.5t-8.5 27.5v628q0 19 8.5 27.5t27.5 8.5h360
q14 0 20.5 -10zM348 -108v-57q0 -28 -54 -28q-28 0 -40.5 7t-12.5 21v57q0 28 54 28q53 0 53 -28z" />
    <glyph glyph-name="Egrave" unicode="&#xc8;" horiz-adv-x="546" 
d="M495.5 690q6.5 -10 6.5 -33v-25q0 -23 -6.5 -33t-20.5 -10h-266v-175h238q14 0 20 -10t6 -33v-25q0 -23 -6 -33t-20 -10h-238v-192h267q14 0 20.5 -10t6.5 -33v-25q0 -23 -6.5 -33t-20.5 -10h-361q-19 0 -27.5 8.5t-8.5 27.5v628q0 19 8.5 27.5t27.5 8.5h360
q14 0 20.5 -10zM299 884q24 -43 37 -64q12 -20 19 -33t7 -18q0 -7 -6 -10t-22 -3q-47 0 -67 22l-53 58q-25 28 -36 41.5t-11 19.5q0 7 13.5 10t42.5 3q62 0 76 -26z" />
    <glyph glyph-name="uni1EBA" unicode="&#x1eba;" horiz-adv-x="546" 
d="M495.5 690q6.5 -10 6.5 -33v-25q0 -23 -6.5 -33t-20.5 -10h-266v-175h238q14 0 20 -10t6 -33v-25q0 -23 -6 -33t-20 -10h-238v-192h267q14 0 20.5 -10t6.5 -33v-25q0 -23 -6.5 -33t-20.5 -10h-361q-19 0 -27.5 8.5t-8.5 27.5v628q0 19 8.5 27.5t27.5 8.5h360
q14 0 20.5 -10zM321 863.5q-10 6.5 -24 6.5q-16 0 -28.5 -6t-14.5 -6q-6 0 -17 14.5t-11 24.5t26.5 20.5t52.5 10.5q46 0 75 -19.5t29 -56.5q0 -26 -19.5 -51t-43.5 -41t-34 -16q-13 0 -29.5 7.5t-16.5 13.5q0 7 6 13t20 17q19 15 29 26t10 25q0 11 -10 17.5z" />
    <glyph glyph-name="Emacron" unicode="&#x112;" horiz-adv-x="546" 
d="M495.5 690q6.5 -10 6.5 -33v-25q0 -23 -6.5 -33t-20.5 -10h-266v-175h238q14 0 20 -10t6 -33v-25q0 -23 -6 -33t-20 -10h-238v-192h267q14 0 20.5 -10t6.5 -33v-25q0 -23 -6.5 -33t-20.5 -10h-361q-19 0 -27.5 8.5t-8.5 27.5v628q0 19 8.5 27.5t27.5 8.5h360
q14 0 20.5 -10zM424.5 856.5q6.5 -8.5 6.5 -27.5v-13q0 -20 -6.5 -28.5t-20.5 -8.5h-218q-14 0 -20 9t-6 28v13q0 19 6 27.5t20 8.5h218q14 0 20.5 -8.5z" />
    <glyph glyph-name="Eogonek" unicode="&#x118;" horiz-adv-x="546" 
d="M596 -131q0 -30 -22.5 -41t-59.5 -11q-70 0 -94 33t-24 69q0 20 5.5 43.5t19.5 37.5h-306q-19 0 -27.5 8.5t-8.5 27.5v628q0 19 8.5 27.5t27.5 8.5h360q14 0 20.5 -10t6.5 -33v-25q0 -23 -6.5 -33t-20.5 -10h-266v-175h238q14 0 20 -10t6 -33v-25q0 -23 -6 -33t-20 -10
h-238v-192h267q14 0 20.5 -10t6.5 -33v-25q0 -23 -6.5 -33t-20.5 -10h-2v-4q0 -4 -4 -20q-7 -23 -7 -38q0 -32 18 -41.5t44 -9.5q15 0 28 5q14 4 22 4q21 0 21 -27z" />
    <glyph glyph-name="uni1EBC" unicode="&#x1ebc;" horiz-adv-x="546" 
d="M495.5 690q6.5 -10 6.5 -33v-25q0 -23 -6.5 -33t-20.5 -10h-266v-175h238q14 0 20 -10t6 -33v-25q0 -23 -6 -33t-20 -10h-238v-192h267q14 0 20.5 -10t6.5 -33v-25q0 -23 -6.5 -33t-20.5 -10h-361q-19 0 -27.5 8.5t-8.5 27.5v628q0 19 8.5 27.5t27.5 8.5h360
q14 0 20.5 -10zM254.5 864q23.5 -6 46.5 -13q48 -15 68 -16q21 0 37 21q13 16 25 16q4 0 12 -2l10 -3q18 -6 18 -21q0 -6 -3 -14q-12 -32 -38.5 -51t-63.5 -19q-25 0 -85 18q-19 6 -38 11t-31 5q-21 0 -37 -21q-12 -16 -24 -16q-4 0 -12 2l-11 4q-18 6 -18 22q0 7 3 13
q13 32 39.5 51t63.5 19q15 0 38.5 -6z" />
    <glyph glyph-name="F" unicode="F" horiz-adv-x="503" 
d="M462.5 690q6.5 -10 6.5 -33v-25q0 -23 -6.5 -33t-20.5 -10h-233v-176h222q14 0 20.5 -10t6.5 -33v-25q0 -23 -6.5 -33t-20.5 -10h-222v-276q0 -28 -53 -28h-24q-53 0 -53 28v638q0 19 8.5 27.5t27.5 8.5h327q14 0 20.5 -10z" />
    <glyph glyph-name="G" unicode="G" horiz-adv-x="672" 
d="M473.5 698q48.5 -9 80 -24.5t31.5 -33.5q0 -12 -9.5 -31.5t-22 -34.5t-22.5 -15q-3 0 -24.5 10.5t-54 18.5t-74.5 8q-102 0 -148.5 -61t-46.5 -183q0 -248 190 -248q56 0 96 9v154h-98q-14 0 -20 10t-6 33v26q0 23 6 33t20 10h193q19 0 27.5 -9t8.5 -28v-273
q0 -43 -70.5 -59.5t-158.5 -16.5q-162 0 -242 87t-80 269q0 358 330 358q46 0 94.5 -9z" />
    <glyph glyph-name="Gbreve" unicode="&#x11e;" horiz-adv-x="672" 
d="M473.5 698q48.5 -9 80 -24.5t31.5 -33.5q0 -12 -9.5 -31.5t-22 -34.5t-22.5 -15q-3 0 -24.5 10.5t-54 18.5t-74.5 8q-102 0 -148.5 -61t-46.5 -183q0 -248 190 -248q56 0 96 9v154h-98q-14 0 -20 10t-6 33v26q0 23 6 33t20 10h193q19 0 27.5 -9t8.5 -28v-273
q0 -43 -70.5 -59.5t-158.5 -16.5q-162 0 -242 87t-80 269q0 358 330 358q46 0 94.5 -9zM491 869q0 -48 -42.5 -80.5t-103.5 -32.5t-103.5 32.5t-42.5 80.5q0 23 28 23q10 0 15 -3.5t8.5 -9.5t5.5 -8q23 -33 89 -33q65 0 91 35q2 2 6 8t9 8.5t12 2.5q28 0 28 -23z" />
    <glyph glyph-name="Gcircumflex" unicode="&#x11c;" horiz-adv-x="672" 
d="M473.5 698q48.5 -9 80 -24.5t31.5 -33.5q0 -12 -9.5 -31.5t-22 -34.5t-22.5 -15q-3 0 -24.5 10.5t-54 18.5t-74.5 8q-102 0 -148.5 -61t-46.5 -183q0 -248 190 -248q56 0 96 9v154h-98q-14 0 -20 10t-6 33v26q0 23 6 33t20 10h193q19 0 27.5 -9t8.5 -28v-273
q0 -43 -70.5 -59.5t-158.5 -16.5q-162 0 -242 87t-80 269q0 358 330 358q46 0 94.5 -9zM388 891q13 -4 21 -16l62 -97q6 -9 6 -16q0 -12 -21 -12h-15q-40 0 -55 20l-41 53l-40 -52q-9 -12 -22.5 -16.5t-32.5 -4.5h-15q-21 0 -21 12q0 7 6 16l62 97q7 12 20.5 16t34.5 4h16
q22 0 35 -4z" />
    <glyph glyph-name="Gcommaaccent" unicode="&#x122;" horiz-adv-x="672" 
d="M473.5 698q48.5 -9 80 -24.5t31.5 -33.5q0 -12 -9.5 -31.5t-22 -34.5t-22.5 -15q-3 0 -24.5 10.5t-54 18.5t-74.5 8q-102 0 -148.5 -61t-46.5 -183q0 -248 190 -248q56 0 96 9v154h-98q-14 0 -20 10t-6 33v26q0 23 6 33t20 10h193q19 0 27.5 -9t8.5 -28v-273
q0 -43 -70.5 -59.5t-158.5 -16.5q-162 0 -242 87t-80 269q0 358 330 358q46 0 94.5 -9zM410 -61.5q12 -10.5 12 -27.5q0 -36 -18.5 -70.5t-44 -56.5t-43.5 -22q-14 0 -26.5 5t-12.5 14q0 6 3.5 14t4.5 11q11 25 17 47t6 56q0 19 13 29.5t40 10.5h15q22 0 34 -10.5z" />
    <glyph glyph-name="Gdotaccent" unicode="&#x120;" horiz-adv-x="672" 
d="M473.5 698q48.5 -9 80 -24.5t31.5 -33.5q0 -12 -9.5 -31.5t-22 -34.5t-22.5 -15q-3 0 -24.5 10.5t-54 18.5t-74.5 8q-102 0 -148.5 -61t-46.5 -183q0 -248 190 -248q56 0 96 9v154h-98q-14 0 -20 10t-6 33v26q0 23 6 33t20 10h193q19 0 27.5 -9t8.5 -28v-273
q0 -43 -70.5 -59.5t-158.5 -16.5q-162 0 -242 87t-80 269q0 358 330 358q46 0 94.5 -9zM399 851v-57q0 -28 -54 -28q-28 0 -40.5 7t-12.5 21v57q0 28 54 28q53 0 53 -28z" />
    <glyph glyph-name="H" unicode="H" horiz-adv-x="733" 
d="M654 674v-648q0 -28 -53 -28h-25q-53 0 -53 28v276h-303v-276q0 -28 -53 -28h-25q-53 0 -53 28v648q0 28 53 28h25q53 0 53 -28v-260h303v260q0 28 53 28h25q53 0 53 -28z" />
    <glyph glyph-name="Hbar" unicode="&#x126;" horiz-adv-x="733" 
d="M689 558.5q6 -8.5 6 -27.5v-13q0 -19 -6 -28t-20 -9h-15v-455q0 -28 -53 -28h-25q-53 0 -53 28v276h-303v-276q0 -28 -53 -28h-25q-53 0 -53 28v455h-24q-14 0 -20 9t-6 28v13q0 19 6 27.5t20 8.5h24v107q0 28 53 28h25q53 0 53 -28v-107h303v107q0 28 53 28h25
q53 0 53 -28v-107h15q14 0 20 -8.5zM523 481h-303v-67h303v67z" />
    <glyph glyph-name="Hcircumflex" unicode="&#x124;" horiz-adv-x="733" 
d="M654 674v-648q0 -28 -53 -28h-25q-53 0 -53 28v276h-303v-276q0 -28 -53 -28h-25q-53 0 -53 28v648q0 28 53 28h25q53 0 53 -28v-260h303v260q0 28 53 28h25q53 0 53 -28zM410 891q13 -4 21 -16l62 -97q6 -9 6 -16q0 -12 -21 -12h-15q-40 0 -55 20l-41 53l-40 -52
q-9 -12 -22.5 -16.5t-32.5 -4.5h-15q-21 0 -21 12q0 7 6 16l62 97q7 12 20.5 16t34.5 4h16q22 0 35 -4z" />
    <glyph glyph-name="uni1E24" unicode="&#x1e24;" horiz-adv-x="733" 
d="M654 674v-648q0 -28 -53 -28h-25q-53 0 -53 28v276h-303v-276q0 -28 -53 -28h-25q-53 0 -53 28v648q0 28 53 28h25q53 0 53 -28v-260h303v260q0 28 53 28h25q53 0 53 -28zM435 -108v-57q0 -28 -54 -28q-28 0 -40.5 7t-12.5 21v57q0 28 54 28q53 0 53 -28z" />
    <glyph glyph-name="I" unicode="I" horiz-adv-x="282" 
d="M206 674v-648q0 -29 -53 -29h-25q-53 0 -53 29v648q0 29 53 29h25q53 0 53 -29z" />
    <glyph glyph-name="IJ" unicode="&#x132;" horiz-adv-x="684" 
d="M206 674v-648q0 -29 -53 -29h-25q-53 0 -53 29v648q0 29 53 29h25q53 0 53 -29zM612 674v-471q0 -99 -51.5 -154.5t-160.5 -55.5q-40 0 -78 8t-38 33q0 18 9 48t25 31q6 0 22 -4.5t37 -4.5q55 0 79.5 26.5t24.5 84.5v459q0 29 53 29h25q53 0 53 -29z" />
    <glyph glyph-name="Iacute" unicode="&#xcd;" horiz-adv-x="282" 
d="M206 674v-648q0 -29 -53 -29h-25q-53 0 -53 29v648q0 29 53 29h25q53 0 53 -29zM263.5 907q13.5 -3 13.5 -10q0 -6 -11.5 -20t-37.5 -42l-52 -57q-20 -22 -66 -22q-16 0 -22 3t-6 10q0 4 6.5 16.5t13.5 25.5t11 19q34 60 31 54q16 26 77 26q29 0 42.5 -3z" />
    <glyph glyph-name="Ibreve" unicode="&#x12c;" horiz-adv-x="282" 
d="M206 674v-648q0 -29 -53 -29h-25q-53 0 -53 29v648q0 29 53 29h25q53 0 53 -29zM287 869q0 -48 -42.5 -80.5t-103.5 -32.5t-103.5 32.5t-42.5 80.5q0 23 28 23q10 0 15 -3.5t8.5 -9.5t5.5 -8q23 -33 89 -33q65 0 91 35q2 2 6 8t9 8.5t12 2.5q28 0 28 -23z" />
    <glyph glyph-name="Icircumflex" unicode="&#xce;" horiz-adv-x="282" 
d="M206 674v-648q0 -29 -53 -29h-25q-53 0 -53 29v648q0 29 53 29h25q53 0 53 -29zM183 891q13 -4 21 -16l62 -97q6 -9 6 -16q0 -12 -21 -12h-15q-40 0 -55 20l-41 53l-40 -52q-9 -12 -22.5 -16.5t-32.5 -4.5h-15q-21 0 -21 12q0 7 6 16l62 97q7 12 20.5 16t34.5 4h16
q22 0 35 -4z" />
    <glyph glyph-name="Idieresis" unicode="&#xcf;" horiz-adv-x="282" 
d="M206 674v-648q0 -29 -53 -29h-25q-53 0 -53 29v648q0 29 53 29h25q53 0 53 -29zM111 851v-57q0 -28 -54 -28q-28 0 -40.5 7t-12.5 21v57q0 28 54 28q53 0 53 -28zM278 851v-57q0 -28 -54 -28q-28 0 -40.5 7t-12.5 21v57q0 28 54 28q53 0 53 -28z" />
    <glyph glyph-name="Idotaccent" unicode="&#x130;" horiz-adv-x="282" 
d="M206 674v-648q0 -29 -53 -29h-25q-53 0 -53 29v648q0 29 53 29h25q53 0 53 -29zM195 851v-57q0 -28 -54 -28q-28 0 -40.5 7t-12.5 21v57q0 28 54 28q53 0 53 -28z" />
    <glyph glyph-name="uni1ECA" unicode="&#x1eca;" horiz-adv-x="282" 
d="M206 674v-648q0 -29 -53 -29h-25q-53 0 -53 29v648q0 29 53 29h25q53 0 53 -29zM197 -108v-57q0 -28 -54 -28q-28 0 -40.5 7t-12.5 21v57q0 28 54 28q53 0 53 -28z" />
    <glyph glyph-name="Igrave" unicode="&#xcc;" horiz-adv-x="282" 
d="M206 674v-648q0 -29 -53 -29h-25q-53 0 -53 29v648q0 29 53 29h25q53 0 53 -29zM145 884q24 -43 37 -64q12 -20 19 -33t7 -18q0 -7 -6 -10t-22 -3q-47 0 -67 22l-53 58q-25 28 -36 41.5t-11 19.5q0 7 13.5 10t42.5 3q62 0 76 -26z" />
    <glyph glyph-name="uni1EC8" unicode="&#x1ec8;" horiz-adv-x="282" 
d="M206 674v-648q0 -29 -53 -29h-25q-53 0 -53 29v648q0 29 53 29h25q53 0 53 -29zM167 863.5q-10 6.5 -24 6.5q-16 0 -28.5 -6t-14.5 -6q-6 0 -17 14.5t-11 24.5t26.5 20.5t52.5 10.5q46 0 75 -19.5t29 -56.5q0 -26 -19.5 -51t-43.5 -41t-34 -16q-13 0 -29.5 7.5
t-16.5 13.5q0 7 6 13t20 17q19 15 29 26t10 25q0 11 -10 17.5z" />
    <glyph glyph-name="Imacron" unicode="&#x12a;" horiz-adv-x="282" 
d="M206 674v-648q0 -29 -53 -29h-25q-53 0 -53 29v648q0 29 53 29h25q53 0 53 -29zM269.5 856.5q6.5 -8.5 6.5 -27.5v-13q0 -20 -6.5 -28.5t-20.5 -8.5h-218q-14 0 -20 9t-6 28v13q0 19 6 27.5t20 8.5h218q14 0 20.5 -8.5z" />
    <glyph glyph-name="Iogonek" unicode="&#x12e;" horiz-adv-x="282" 
d="M298 -131q0 -30 -22.5 -41t-59.5 -11q-70 0 -94 33t-24 69q0 19 5 41.5t17 36.5q-45 3 -45 29v648q0 29 53 29h25q53 0 53 -29v-648q0 -21 -30 -27v-3q0 -4 -4 -20q-7 -23 -7 -38q0 -32 18 -41.5t44 -9.5q15 0 28 5q14 4 22 4q21 0 21 -27z" />
    <glyph glyph-name="Itilde" unicode="&#x128;" horiz-adv-x="282" 
d="M206 674v-648q0 -29 -53 -29h-25q-53 0 -53 29v648q0 29 53 29h25q53 0 53 -29zM106.646 864q21.1494 -6 41.8486 -13q43.1982 -15 61.1973 -16q18.8994 0 33.2988 21q11.6992 16 22.499 16q3.59961 0 10.7998 -2l8.99902 -3q16.1992 -6 16.1992 -21q0 -6 -2.69922 -14
q-10.7998 -32 -34.6484 -51q-23.8496 -19 -57.1484 -19q-22.499 0 -76.4961 18q-17.0996 6 -34.1992 11q-17.0986 5 -27.8984 5q-18.8994 0 -33.2988 -21q-10.7998 -16 -21.5996 -16q-3.59961 0 -10.7988 2l-9.89941 4q-16.2002 6 -16.2002 22q0 7 2.7002 13
q11.6992 32 35.5488 51q23.8486 19 57.1475 19q13.499 0 34.6484 -6z" />
    <glyph glyph-name="J" unicode="J" horiz-adv-x="402" 
d="M330 674v-471q0 -99 -51.5 -154.5t-160.5 -55.5q-40 0 -78 8t-38 33q0 18 9 48t25 31q6 0 22 -4.5t37 -4.5q55 0 79.5 26.5t24.5 84.5v459q0 29 53 29h25q53 0 53 -29z" />
    <glyph glyph-name="Jcircumflex" unicode="&#x134;" horiz-adv-x="402" 
d="M330 674v-471q0 -99 -51.5 -154.5t-160.5 -55.5q-40 0 -78 8t-38 33q0 18 9 48t25 31q6 0 22 -4.5t37 -4.5q55 0 79.5 26.5t24.5 84.5v459q0 29 53 29h25q53 0 53 -29zM307 891q13 -4 21 -16l62 -97q6 -9 6 -16q0 -12 -21 -12h-15q-40 0 -55 20l-41 53l-40 -52
q-9 -12 -22.5 -16.5t-32.5 -4.5h-15q-21 0 -21 12q0 7 6 16l62 97q7 12 20.5 16t34.5 4h16q22 0 35 -4z" />
    <glyph glyph-name="K" unicode="K" horiz-adv-x="576" 
d="M554 688q0 -7 -9 -21l-214 -302l250 -333q8 -12 8 -19q0 -15 -52 -15h-41q-47 0 -59 17l-223 310h-4v-299q0 -28 -53 -28h-25q-53 0 -53 28v648q0 28 53 28h25q53 0 53 -28v-282l4 -1l200 294q12 17 58 17h33q49 0 49 -14z" />
    <glyph glyph-name="Kcommaaccent" unicode="&#x136;" horiz-adv-x="576" 
d="M554 688q0 -7 -9 -21l-214 -302l250 -333q8 -12 8 -19q0 -15 -52 -15h-41q-47 0 -59 17l-223 310h-4v-299q0 -28 -53 -28h-25q-53 0 -53 28v648q0 28 53 28h25q53 0 53 -28v-282l4 -1l200 294q12 17 58 17h33q49 0 49 -14zM337 -61.5q12 -10.5 12 -27.5
q0 -36 -18.5 -70.5t-44 -56.5t-43.5 -22q-14 0 -26.5 5t-12.5 14q0 6 3.5 14t4.5 11q11 25 17 47t6 56q0 19 13 29.5t40 10.5h15q22 0 34 -10.5z" />
    <glyph glyph-name="L" unicode="L" horiz-adv-x="484" 
d="M209 674v-563h242q14 0 20 -10.5t6 -32.5v-25q0 -22 -6 -32.5t-20 -10.5h-336q-19 0 -27.5 8.5t-8.5 27.5v638q0 28 53 28h24q53 0 53 -28z" />
    <glyph glyph-name="uni01C7" unicode="&#x1c7;" horiz-adv-x="718" 
d="M651 674v-627q0 -101 -52 -160t-160 -59q-39 0 -77.5 8.5t-38.5 32.5q0 18 9 48t25 31q6 0 22 -4t37 -4q55 0 79.5 26t24.5 85v623q0 29 53 29h25q53 0 53 -29zM209 674v-563h172q14 0 20 -10.5t6 -32.5v-25q0 -22 -6 -32.5t-20 -10.5h-266q-19 0 -27.5 8.5t-8.5 27.5
v638q0 28 53 28h24q53 0 53 -28z" />
    <glyph glyph-name="Lacute" unicode="&#x139;" horiz-adv-x="484" 
d="M209 674v-563h242q14 0 20 -10.5t6 -32.5v-25q0 -22 -6 -32.5t-20 -10.5h-336q-19 0 -27.5 8.5t-8.5 27.5v638q0 28 53 28h24q53 0 53 -28zM270.5 908q13.5 -3 13.5 -10q0 -6 -11.5 -20t-37.5 -42l-52 -57q-20 -22 -66 -22q-16 0 -22 3t-6 10q0 4 6.5 16.5t13.5 25.5
t11 19q34 60 31 54q16 26 77 26q29 0 42.5 -3z" />
    <glyph glyph-name="Lcaron" unicode="&#x13d;" horiz-adv-x="484" 
d="M209 674v-563h242q14 0 20 -10.5t6 -32.5v-25q0 -22 -6 -32.5t-20 -10.5h-336q-19 0 -27.5 8.5t-8.5 27.5v638q0 28 53 28h24q53 0 53 -28zM417 689.5q12 -10.5 12 -27.5q0 -35 -14.5 -68.5t-34.5 -55t-34 -22.5q-14 0 -26.5 5t-12.5 15q0 19 1 32.5t2 23.5q4 42 4 68
q0 19 13 29.5t40 10.5h15q23 0 35 -10.5z" />
    <glyph glyph-name="Lcommaaccent" unicode="&#x13b;" horiz-adv-x="484" 
d="M209 674v-563h242q14 0 20 -10.5t6 -32.5v-25q0 -22 -6 -32.5t-20 -10.5h-336q-19 0 -27.5 8.5t-8.5 27.5v638q0 28 53 28h24q53 0 53 -28zM300 -61.5q12 -10.5 12 -27.5q0 -36 -18.5 -70.5t-44 -56.5t-43.5 -22q-14 0 -26.5 5t-12.5 14q0 6 3.5 14t4.5 11q11 25 17 47
t6 56q0 19 13 29.5t40 10.5h15q22 0 34 -10.5z" />
    <glyph glyph-name="Ldot" unicode="&#x13f;" horiz-adv-x="484" 
d="M209 674v-563h242q14 0 20 -10.5t6 -32.5v-25q0 -22 -6 -32.5t-20 -10.5h-336q-19 0 -27.5 8.5t-8.5 27.5v638q0 28 53 28h24q53 0 53 -28zM365 404.5q19 -18.5 19 -45.5q0 -26 -19 -44.5t-45 -18.5t-44.5 18.5t-18.5 44.5q0 27 18.5 45.5t44.5 18.5t45 -18.5z" />
    <glyph glyph-name="uni01C8" unicode="&#x1c8;" horiz-adv-x="760" 
d="M209 674v-563h242q14 0 20 -10.5t6 -32.5v-25q0 -22 -6 -32.5t-20 -10.5h-336q-19 0 -27.5 8.5t-8.5 27.5v638q0 28 53 28h24q53 0 53 -28zM692 725v-73q0 -14 -12.5 -21t-40.5 -7h-22q-28 0 -40.5 7t-12.5 21v73q0 28 53 28h22q53 0 53 -28zM690 497v-556
q0 -78 -40 -115.5t-99 -37.5q-48 0 -70.5 9.5t-22.5 34.5q0 17 9 39t21 22q5 0 15 -2t20 -2q21 0 32 12.5t11 41.5v554q0 28 52 28h20q52 0 52 -28z" />
    <glyph glyph-name="Lslash" unicode="&#x141;" horiz-adv-x="486" 
d="M206 674v-209l95 57q8 5 13 5q10 0 10 -18v-15q0 -26 -23 -40l-95 -57v-286h248q14 0 20 -10.5t6 -32.5v-25q0 -22 -6 -32.5t-20 -10.5h-341q-19 0 -28 8.5t-9 27.5v282l-37 -22q-6 -5 -13 -5q-10 0 -10 18v15q0 14 5.5 23t17.5 17l37 22v288q0 28 53 28h25q52 0 52 -28z
" />
    <glyph glyph-name="M" unicode="M" horiz-adv-x="843" 
d="M767 674v-648q0 -28 -53 -28h-21q-53 0 -53 28v459h-3l-165 -291q-11 -17 -33 -17h-33q-22 0 -34 17l-165 293l-4 1v-462q0 -28 -52 -28h-21q-53 0 -53 28v648q0 28 53 28h47q42 0 55 -24l176 -309l14 -32l15 31l177 310q13 24 55 24h45q53 0 53 -28z" />
    <glyph glyph-name="N" unicode="N" horiz-adv-x="719" 
d="M643 674v-648q0 -28 -53 -28h-31q-21 0 -33.5 4.5t-21.5 17.5l-277 422l-24 39v-455q0 -28 -52 -28h-21q-53 0 -53 28v648q0 28 53 28h35q21 0 34.5 -5t22.5 -19l266 -407l28 -46v449q0 28 53 28h21q53 0 53 -28z" />
    <glyph glyph-name="uni01CA" unicode="&#x1ca;" horiz-adv-x="1121" 
d="M643 674v-648q0 -28 -53 -28h-31q-21 0 -33.5 4.5t-21.5 17.5l-277 422l-24 39v-455q0 -28 -52 -28h-21q-53 0 -53 28v648q0 28 53 28h35q21 0 34.5 -5t22.5 -19l266 -407l28 -46v449q0 28 53 28h21q53 0 53 -28zM1049 674v-471q0 -99 -51.5 -154.5t-160.5 -55.5
q-40 0 -78 8t-38 33q0 18 9 48t25 31q6 0 22 -4.5t37 -4.5q55 0 79.5 26.5t24.5 84.5v459q0 29 53 29h25q53 0 53 -29z" />
    <glyph glyph-name="Nacute" unicode="&#x143;" horiz-adv-x="719" 
d="M643 674v-648q0 -28 -53 -28h-31q-21 0 -33.5 4.5t-21.5 17.5l-277 422l-24 39v-455q0 -28 -52 -28h-21q-53 0 -53 28v648q0 28 53 28h35q21 0 34.5 -5t22.5 -19l266 -407l28 -46v449q0 28 53 28h21q53 0 53 -28zM482.5 907q13.5 -3 13.5 -10q0 -6 -11.5 -20t-37.5 -42
l-52 -57q-20 -22 -66 -22q-16 0 -22 3t-6 10q0 4 6.5 16.5t13.5 25.5t11 19q34 60 31 54q16 26 77 26q29 0 42.5 -3z" />
    <glyph glyph-name="Ncaron" unicode="&#x147;" horiz-adv-x="719" 
d="M643 674v-648q0 -28 -53 -28h-31q-21 0 -33.5 4.5t-21.5 17.5l-277 422l-24 39v-455q0 -28 -52 -28h-21q-53 0 -53 28v648q0 28 53 28h35q21 0 34.5 -5t22.5 -19l266 -407l28 -46v449q0 28 53 28h21q53 0 53 -28zM492 885q0 -6 -6 -15l-62 -97q-8 -12 -21 -16t-35 -4h-16
q-21 0 -34.5 4t-20.5 16l-62 97q-6 9 -6 16q0 11 21 11h15q39 0 55 -20l40 -52l41 52q14 20 55 20h15q21 0 21 -12z" />
    <glyph glyph-name="Ncommaaccent" unicode="&#x145;" horiz-adv-x="719" 
d="M643 674v-648q0 -28 -53 -28h-31q-21 0 -33.5 4.5t-21.5 17.5l-277 422l-24 39v-455q0 -28 -52 -28h-21q-53 0 -53 28v648q0 28 53 28h35q21 0 34.5 -5t22.5 -19l266 -407l28 -46v449q0 28 53 28h21q53 0 53 -28zM403 -61.5q12 -10.5 12 -27.5q0 -36 -18.5 -70.5
t-44 -56.5t-43.5 -22q-14 0 -26.5 5t-12.5 14q0 6 3.5 14t4.5 11q11 25 17 47t6 56q0 19 13 29.5t40 10.5h15q22 0 34 -10.5z" />
    <glyph glyph-name="uni1E44" unicode="&#x1e44;" horiz-adv-x="719" 
d="M643 674v-648q0 -28 -53 -28h-31q-21 0 -33.5 4.5t-21.5 17.5l-277 422l-24 39v-455q0 -28 -52 -28h-21q-53 0 -53 28v648q0 28 53 28h35q21 0 34.5 -5t22.5 -19l266 -407l28 -46v449q0 28 53 28h21q53 0 53 -28zM414 851v-57q0 -28 -54 -28q-28 0 -40.5 7t-12.5 21v57
q0 28 54 28q53 0 53 -28z" />
    <glyph glyph-name="Eng" unicode="&#x14a;" horiz-adv-x="719" 
d="M643 26h-1v-85q0 -78 -40 -115.5t-99 -37.5q-48 0 -70.5 9.5t-22.5 34.5q0 17 9 39t21 22q5 0 15 -2t20 -2q21 0 32 12.5t11 41.5v56l-289 438l-26 44v-455q0 -28 -52 -28h-21q-53 0 -53 28v648q0 28 53 28h35q21 0 34.5 -5t22.5 -19l266 -406l28 -47v449q0 28 53 28h21
q53 0 53 -28v-648z" />
    <glyph glyph-name="uni01CB" unicode="&#x1cb;" horiz-adv-x="995" 
d="M643 674v-648q0 -28 -53 -28h-31q-21 0 -33.5 4.5t-21.5 17.5l-277 422l-24 39v-455q0 -28 -52 -28h-21q-53 0 -53 28v648q0 28 53 28h35q21 0 34.5 -5t22.5 -19l266 -407l28 -46v449q0 28 53 28h21q53 0 53 -28zM927 725v-73q0 -14 -12.5 -21t-40.5 -7h-22
q-28 0 -40.5 7t-12.5 21v73q0 28 53 28h22q53 0 53 -28zM925 497v-556q0 -78 -40 -115.5t-99 -37.5q-48 0 -70.5 9.5t-22.5 34.5q0 17 9 39t21 22q5 0 15 -2t20 -2q21 0 32 12.5t11 41.5v554q0 28 52 28h20q52 0 52 -28z" />
    <glyph glyph-name="Ntilde" unicode="&#xd1;" horiz-adv-x="719" 
d="M643 674v-648q0 -28 -53 -28h-31q-21 0 -33.5 4.5t-21.5 17.5l-277 422l-24 39v-455q0 -28 -52 -28h-21q-53 0 -53 28v648q0 28 53 28h35q21 0 34.5 -5t22.5 -19l266 -407l28 -46v449q0 28 53 28h21q53 0 53 -28zM319.5 864q23.5 -6 46.5 -13q48 -15 68 -16q21 0 37 21
q13 16 25 16q4 0 12 -2l10 -3q18 -6 18 -21q0 -6 -3 -14q-12 -32 -38.5 -51t-63.5 -19q-25 0 -85 18q-19 6 -38 11t-31 5q-21 0 -37 -21q-12 -16 -24 -16q-4 0 -12 2l-11 4q-18 6 -18 22q0 7 3 13q13 32 39.5 51t63.5 19q15 0 38.5 -6z" />
    <glyph glyph-name="O" unicode="O" horiz-adv-x="731" 
d="M599.5 616q81.5 -91 81.5 -265t-81.5 -266t-234.5 -92t-234.5 92t-81.5 266t81.5 265t234.5 91t234.5 -91zM229.5 533.5q-46.5 -62.5 -46.5 -182.5q0 -121 46.5 -184t136.5 -63q89 0 135.5 63t46.5 184q0 120 -46.5 182.5t-135.5 62.5q-90 0 -136.5 -62.5z" />
    <glyph glyph-name="Oacute" unicode="&#xd3;" horiz-adv-x="731" 
d="M599.5 616q81.5 -91 81.5 -265t-81.5 -266t-234.5 -92t-234.5 92t-81.5 266t81.5 265t234.5 91t234.5 -91zM229.5 533.5q-46.5 -62.5 -46.5 -182.5q0 -121 46.5 -184t136.5 -63q89 0 135.5 63t46.5 184q0 120 -46.5 182.5t-135.5 62.5q-90 0 -136.5 -62.5zM488.5 907
q13.5 -3 13.5 -10q0 -6 -11.5 -20t-37.5 -42l-52 -57q-20 -22 -66 -22q-16 0 -22 3t-6 10q0 4 6.5 16.5t13.5 25.5t11 19q34 60 31 54q16 26 77 26q29 0 42.5 -3z" />
    <glyph glyph-name="Obreve" unicode="&#x14e;" horiz-adv-x="731" 
d="M599.5 616q81.5 -91 81.5 -265t-81.5 -266t-234.5 -92t-234.5 92t-81.5 266t81.5 265t234.5 91t234.5 -91zM229.5 533.5q-46.5 -62.5 -46.5 -182.5q0 -121 46.5 -184t136.5 -63q89 0 135.5 63t46.5 184q0 120 -46.5 182.5t-135.5 62.5q-90 0 -136.5 -62.5zM512 869
q0 -48 -42.5 -80.5t-103.5 -32.5t-103.5 32.5t-42.5 80.5q0 23 28 23q10 0 15 -3.5t8.5 -9.5t5.5 -8q23 -33 89 -33q65 0 91 35q2 2 6 8t9 8.5t12 2.5q28 0 28 -23z" />
    <glyph glyph-name="Ocircumflex" unicode="&#xd4;" horiz-adv-x="731" 
d="M599.5 616q81.5 -91 81.5 -265t-81.5 -266t-234.5 -92t-234.5 92t-81.5 266t81.5 265t234.5 91t234.5 -91zM229.5 533.5q-46.5 -62.5 -46.5 -182.5q0 -121 46.5 -184t136.5 -63q89 0 135.5 63t46.5 184q0 120 -46.5 182.5t-135.5 62.5q-90 0 -136.5 -62.5zM409 891
q13 -4 21 -16l62 -97q6 -9 6 -16q0 -12 -21 -12h-15q-40 0 -55 20l-41 53l-40 -52q-9 -12 -22.5 -16.5t-32.5 -4.5h-15q-21 0 -21 12q0 7 6 16l62 97q7 12 20.5 16t34.5 4h16q22 0 35 -4z" />
    <glyph glyph-name="uni1ED0" unicode="&#x1ed0;" horiz-adv-x="731" 
d="M599.5 959q8.5 -4 8.5 -16q0 -7 -10.5 -21.5t-50.5 -64.5l-13 -16q-7 -8 -17.5 -12t-30.5 -4q-12 0 -17 3t-5 10q0 6 10 28.5t12 28.5l18 41q14 27 68 27q19 0 27.5 -4zM404 890.5q11 -4.5 17 -15.5l57 -97q6 -9 6 -16q0 -12 -21 -12h-15q-47 0 -55 20l-26 53l-40 -52
q-9 -12 -22 -16.5t-33 -4.5h-15q-21 0 -21 12q0 7 6 16l62 97q8 12 21 16t35 4h16q17 0 28 -4.5zM599.5 616q81.5 -91 81.5 -265t-81.5 -266t-234.5 -92t-234.5 92t-81.5 266t81.5 265t234.5 91t234.5 -91zM229.5 533.5q-46.5 -62.5 -46.5 -182.5q0 -121 46.5 -184
t136.5 -63q89 0 135.5 63t46.5 184q0 120 -46.5 182.5t-135.5 62.5q-90 0 -136.5 -62.5z" />
    <glyph glyph-name="uni1ED8" unicode="&#x1ed8;" horiz-adv-x="731" 
d="M599.5 616q81.5 -91 81.5 -265t-81.5 -266t-234.5 -92t-234.5 92t-81.5 266t81.5 265t234.5 91t234.5 -91zM229.5 533.5q-46.5 -62.5 -46.5 -182.5q0 -121 46.5 -184t136.5 -63q89 0 135.5 63t46.5 184q0 120 -46.5 182.5t-135.5 62.5q-90 0 -136.5 -62.5zM409 891
q13 -4 21 -16l62 -97q6 -9 6 -16q0 -12 -21 -12h-15q-40 0 -55 20l-41 53l-40 -52q-9 -12 -22.5 -16.5t-32.5 -4.5h-15q-21 0 -21 12q0 7 6 16l62 97q7 12 20.5 16t34.5 4h16q22 0 35 -4zM423 -108v-57q0 -28 -54 -28q-28 0 -40.5 7t-12.5 21v57q0 28 54 28q53 0 53 -28z
" />
    <glyph glyph-name="uni1ED2" unicode="&#x1ed2;" horiz-adv-x="731" 
d="M516 936q35 -85 35 -99q0 -7 -6.5 -10t-21.5 -3q-37 0 -53 22l-26 35q-23 33 -33 47.5t-10 20.5q0 7 10 10t33 3q60 0 72 -26zM404 890.5q11 -4.5 17 -15.5l57 -97q6 -9 6 -16q0 -12 -21 -12h-15q-47 0 -55 20l-26 53l-40 -52q-9 -12 -22 -16.5t-33 -4.5h-15
q-21 0 -21 12q0 7 6 16l62 97q8 12 21 16t35 4h16q17 0 28 -4.5zM599.5 616q81.5 -91 81.5 -265t-81.5 -266t-234.5 -92t-234.5 92t-81.5 266t81.5 265t234.5 91t234.5 -91zM229.5 533.5q-46.5 -62.5 -46.5 -182.5q0 -121 46.5 -184t136.5 -63q89 0 135.5 63t46.5 184
q0 120 -46.5 182.5t-135.5 62.5q-90 0 -136.5 -62.5z" />
    <glyph glyph-name="uni1ED4" unicode="&#x1ed4;" horiz-adv-x="731" 
d="M509 913.5q-8 5.5 -19 5.5q-21 0 -34 -8t-16 -8q-6 0 -17 15t-11 24q0 10 26 19t53 9q40 0 65.5 -17.5t25.5 -49.5q0 -30 -29 -53q-29 -22 -46 -22q-18 0 -30 6.5t-12 14.5t21 18q17 8 24 14.5t7 16.5t-8 15.5zM404 890.5q11 -4.5 17 -15.5l57 -97q6 -9 6 -16
q0 -12 -21 -12h-15q-47 0 -55 20l-26 53l-40 -52q-9 -12 -22 -16.5t-33 -4.5h-15q-21 0 -21 12q0 7 6 16l62 97q8 12 21 16t35 4h16q17 0 28 -4.5zM599.5 616q81.5 -91 81.5 -265t-81.5 -266t-234.5 -92t-234.5 92t-81.5 266t81.5 265t234.5 91t234.5 -91zM229.5 533.5
q-46.5 -62.5 -46.5 -182.5q0 -121 46.5 -184t136.5 -63q89 0 135.5 63t46.5 184q0 120 -46.5 182.5t-135.5 62.5q-90 0 -136.5 -62.5z" />
    <glyph glyph-name="uni1ED6" unicode="&#x1ed6;" horiz-adv-x="731" 
d="M372 995q18 -6 35 -11t28 -5q19 0 34 21q11 16 23 16q2 0 10 -2l9 -3q17 -7 17 -22q0 -6 -3 -14q-12 -32 -36 -50.5t-57 -18.5q-22 0 -76 18q-18 6 -35.5 11t-28.5 5q-18 0 -33 -21q-11 -16 -22 -16q-3 0 -11 2l-9 3q-17 7 -17 22q0 7 3 13q12 33 35.5 51.5t57.5 18.5
q22 0 76 -18zM406.5 866.5q12.5 -4.5 23.5 -15.5l62 -73q6 -9 6 -16q0 -5 -6 -8.5t-16 -3.5h-14q-14 0 -24.5 4t-19.5 9t-12 7l-40 36l-40 -35q-4 -2 -14.5 -8.5t-20 -9.5t-20.5 -3h-15q-21 0 -21 12q0 7 6 16l62 73q10 11 22.5 15.5t32.5 4.5h16q20 0 32.5 -4.5zM599.5 616
q81.5 -91 81.5 -265t-81.5 -266t-234.5 -92t-234.5 92t-81.5 266t81.5 265t234.5 91t234.5 -91zM229.5 533.5q-46.5 -62.5 -46.5 -182.5q0 -121 46.5 -184t136.5 -63q89 0 135.5 63t46.5 184q0 120 -46.5 182.5t-135.5 62.5q-90 0 -136.5 -62.5z" />
    <glyph glyph-name="Odieresis" unicode="&#xd6;" horiz-adv-x="731" 
d="M599.5 616q81.5 -91 81.5 -265t-81.5 -266t-234.5 -92t-234.5 92t-81.5 266t81.5 265t234.5 91t234.5 -91zM229.5 533.5q-46.5 -62.5 -46.5 -182.5q0 -121 46.5 -184t136.5 -63q89 0 135.5 63t46.5 184q0 120 -46.5 182.5t-135.5 62.5q-90 0 -136.5 -62.5zM336 851v-57
q0 -28 -54 -28q-28 0 -40.5 7t-12.5 21v57q0 28 54 28q53 0 53 -28zM503 851v-57q0 -28 -54 -28q-28 0 -40.5 7t-12.5 21v57q0 28 54 28q53 0 53 -28z" />
    <glyph glyph-name="uni1ECC" unicode="&#x1ecc;" horiz-adv-x="731" 
d="M599.5 616q81.5 -91 81.5 -265t-81.5 -266t-234.5 -92t-234.5 92t-81.5 266t81.5 265t234.5 91t234.5 -91zM229.5 533.5q-46.5 -62.5 -46.5 -182.5q0 -121 46.5 -184t136.5 -63q89 0 135.5 63t46.5 184q0 120 -46.5 182.5t-135.5 62.5q-90 0 -136.5 -62.5zM423 -108v-57
q0 -28 -54 -28q-28 0 -40.5 7t-12.5 21v57q0 28 54 28q53 0 53 -28z" />
    <glyph glyph-name="Ograve" unicode="&#xd2;" horiz-adv-x="731" 
d="M599.5 616q81.5 -91 81.5 -265t-81.5 -266t-234.5 -92t-234.5 92t-81.5 266t81.5 265t234.5 91t234.5 -91zM229.5 533.5q-46.5 -62.5 -46.5 -182.5q0 -121 46.5 -184t136.5 -63q89 0 135.5 63t46.5 184q0 120 -46.5 182.5t-135.5 62.5q-90 0 -136.5 -62.5zM370 884
q24 -43 37 -64q12 -20 19 -33t7 -18q0 -7 -6 -10t-22 -3q-47 0 -67 22l-53 58q-25 28 -36 41.5t-11 19.5q0 7 13.5 10t42.5 3q62 0 76 -26z" />
    <glyph glyph-name="uni1ECE" unicode="&#x1ece;" horiz-adv-x="731" 
d="M599.5 616q81.5 -91 81.5 -265t-81.5 -266t-234.5 -92t-234.5 92t-81.5 266t81.5 265t234.5 91t234.5 -91zM229.5 533.5q-46.5 -62.5 -46.5 -182.5q0 -121 46.5 -184t136.5 -63q89 0 135.5 63t46.5 184q0 120 -46.5 182.5t-135.5 62.5q-90 0 -136.5 -62.5zM392 863.5
q-10 6.5 -24 6.5q-16 0 -28.5 -6t-14.5 -6q-6 0 -17 14.5t-11 24.5t26.5 20.5t52.5 10.5q46 0 75 -19.5t29 -56.5q0 -26 -19.5 -51t-43.5 -41t-34 -16q-13 0 -29.5 7.5t-16.5 13.5q0 7 6 13t20 17q19 15 29 26t10 25q0 11 -10 17.5z" />
    <glyph glyph-name="Ohorn" unicode="&#x1a0;" horiz-adv-x="731" 
d="M681 351q0 -174 -81.5 -266t-234.5 -92t-234.5 92t-81.5 266t81.5 265t234.5 91q81 0 140 -25h22q49 0 49 35q1 17 -16 38q-10 14 -10 18q0 11 10 17l29 20q6 5 15 5q18 0 32 -27.5t14 -52.5q0 -35 -20.5 -58t-62.5 -30q114 -90 114 -296zM501.5 167q46.5 63 46.5 184
q0 120 -46.5 182.5t-135.5 62.5q-90 0 -136.5 -62.5t-46.5 -182.5q0 -121 46.5 -184t136.5 -63q89 0 135.5 63z" />
    <glyph glyph-name="uni1EDA" unicode="&#x1eda;" horiz-adv-x="731" 
d="M330 761q-6 3 -6 10q0 4 6.5 16.5t13.5 25.5t11 19q34 60 31 54q16 26 77 26q29 0 42.5 -3t13.5 -10q0 -6 -11.5 -20t-37.5 -42l-52 -57q-20 -22 -66 -22q-16 0 -22 3zM681 351q0 -174 -81.5 -266t-234.5 -92t-234.5 92t-81.5 266t81.5 265t234.5 91q81 0 140 -25h22
q49 0 49 35q1 17 -16 38q-10 14 -10 18q0 11 10 17l29 20q6 5 15 5q18 0 32 -27.5t14 -52.5q0 -35 -20.5 -58t-62.5 -30q114 -90 114 -296zM501.5 167q46.5 63 46.5 184q0 120 -46.5 182.5t-135.5 62.5q-90 0 -136.5 -62.5t-46.5 -182.5q0 -121 46.5 -184t136.5 -63
q89 0 135.5 63z" />
    <glyph glyph-name="uni1EE2" unicode="&#x1ee2;" horiz-adv-x="731" 
d="M681 351q0 -174 -81.5 -266t-234.5 -92t-234.5 92t-81.5 266t81.5 265t234.5 91q81 0 140 -25h22q49 0 49 35q1 17 -16 38q-10 14 -10 18q0 11 10 17l29 20q6 5 15 5q18 0 32 -27.5t14 -52.5q0 -35 -20.5 -58t-62.5 -30q114 -90 114 -296zM501.5 167q46.5 63 46.5 184
q0 120 -46.5 182.5t-135.5 62.5q-90 0 -136.5 -62.5t-46.5 -182.5q0 -121 46.5 -184t136.5 -63q89 0 135.5 63zM423 -108v-57q0 -28 -54 -28q-28 0 -40.5 7t-12.5 21v57q0 28 54 28q53 0 53 -28z" />
    <glyph glyph-name="uni1EDC" unicode="&#x1edc;" horiz-adv-x="731" 
d="M355 780l-53 58q-25 28 -36 41.5t-11 19.5q0 7 13.5 10t42.5 3q62 0 76 -26q24 -43 37 -64q12 -20 19 -33t7 -18q0 -7 -6 -10t-22 -3q-47 0 -67 22zM681 351q0 -174 -81.5 -266t-234.5 -92t-234.5 92t-81.5 266t81.5 265t234.5 91q81 0 140 -25h22q49 0 49 35
q1 17 -16 38q-10 14 -10 18q0 11 10 17l29 20q6 5 15 5q18 0 32 -27.5t14 -52.5q0 -35 -20.5 -58t-62.5 -30q114 -90 114 -296zM501.5 167q46.5 63 46.5 184q0 120 -46.5 182.5t-135.5 62.5q-90 0 -136.5 -62.5t-46.5 -182.5q0 -121 46.5 -184t136.5 -63q89 0 135.5 63z" />
    <glyph glyph-name="uni1EDE" unicode="&#x1ede;" horiz-adv-x="731" 
d="M325 874.5q-11 14.5 -11 24.5t26.5 20.5t52.5 10.5q46 0 75 -19.5t29 -56.5q0 -26 -19.5 -51t-43.5 -41t-34 -16q-13 0 -29.5 7.5t-16.5 13.5q0 7 6 13t20 17q19 15 29 26t10 25q0 11 -10 17.5t-24 6.5q-16 0 -28.5 -6t-14.5 -6q-6 0 -17 14.5zM681 351
q0 -174 -81.5 -266t-234.5 -92t-234.5 92t-81.5 266t81.5 265t234.5 91q81 0 140 -25h22q49 0 49 35q1 17 -16 38q-10 14 -10 18q0 11 10 17l29 20q6 5 15 5q18 0 32 -27.5t14 -52.5q0 -35 -20.5 -58t-62.5 -30q114 -90 114 -296zM501.5 167q46.5 63 46.5 184
q0 120 -46.5 182.5t-135.5 62.5q-90 0 -136.5 -62.5t-46.5 -182.5q0 -121 46.5 -184t136.5 -63q89 0 135.5 63z" />
    <glyph glyph-name="uni1EE0" unicode="&#x1ee0;" horiz-adv-x="731" 
d="M216 788q0 7 3 14q12 32 36 51t57 19q13 0 34.5 -6t41.5 -13q43 -15 61 -16q19 0 34 21q11 16 22 16q3 0 11 -2l9 -3q16 -5 16 -21q0 -6 -3 -14q-11 -32 -34.5 -51t-56.5 -19q-23 0 -77 18q-4 1 -26 8.5t-36 7.5q-19 0 -33 -21q-11 -16 -22 -16q-3 0 -11 2l-10 4
q-16 6 -16 21zM681 351q0 -174 -81.5 -266t-234.5 -92t-234.5 92t-81.5 266t81.5 265t234.5 91q81 0 140 -25h22q49 0 49 35q1 17 -16 38q-10 14 -10 18q0 11 10 17l29 20q6 5 15 5q18 0 32 -27.5t14 -52.5q0 -35 -20.5 -58t-62.5 -30q114 -90 114 -296zM501.5 167
q46.5 63 46.5 184q0 120 -46.5 182.5t-135.5 62.5q-90 0 -136.5 -62.5t-46.5 -182.5q0 -121 46.5 -184t136.5 -63q89 0 135.5 63z" />
    <glyph glyph-name="Ohungarumlaut" unicode="&#x150;" horiz-adv-x="731" 
d="M599.5 616q81.5 -91 81.5 -265t-81.5 -266t-234.5 -92t-234.5 92t-81.5 266t81.5 265t234.5 91t234.5 -91zM229.5 533.5q-46.5 -62.5 -46.5 -182.5q0 -121 46.5 -184t136.5 -63q89 0 135.5 63t46.5 184q0 120 -46.5 182.5t-135.5 62.5q-90 0 -136.5 -62.5zM408.5 907
q13.5 -3 13.5 -10q0 -6 -11.5 -20t-37.5 -42l-52 -57q-20 -22 -66 -22q-16 0 -22 3t-6 10q0 4 6.5 16.5t13.5 25.5t11 19q34 60 31 54q16 26 77 26q29 0 42.5 -3zM578.5 907q13.5 -3 13.5 -10q0 -6 -11.5 -20t-37.5 -42l-52 -57q-20 -22 -66 -22q-16 0 -22 3t-6 10
q0 4 6.5 16.5t13.5 25.5t11 19q34 60 31 54q16 26 77 26q29 0 42.5 -3z" />
    <glyph glyph-name="Omacron" unicode="&#x14c;" horiz-adv-x="731" 
d="M599.5 616q81.5 -91 81.5 -265t-81.5 -266t-234.5 -92t-234.5 92t-81.5 266t81.5 265t234.5 91t234.5 -91zM229.5 533.5q-46.5 -62.5 -46.5 -182.5q0 -121 46.5 -184t136.5 -63q89 0 135.5 63t46.5 184q0 120 -46.5 182.5t-135.5 62.5q-90 0 -136.5 -62.5zM495.5 856.5
q6.5 -8.5 6.5 -27.5v-13q0 -20 -6.5 -28.5t-20.5 -8.5h-218q-14 0 -20 9t-6 28v13q0 19 6 27.5t20 8.5h218q14 0 20.5 -8.5z" />
    <glyph glyph-name="uni01EA" unicode="&#x1ea;" horiz-adv-x="731" 
d="M620 111.5q-61 -89.5 -177 -111.5v-4q0 -4 -4 -20q-7 -23 -7 -38q0 -32 18 -41.5t44 -9.5q15 0 28 5q14 4 22 4q21 0 21 -27q0 -30 -22.5 -41t-59.5 -11q-70 0 -94 33t-24 69q0 17 4 38t15 36h-19q-153 0 -234.5 92t-81.5 266t81.5 265t234.5 91t234.5 -91t81.5 -265
q0 -150 -61 -239.5zM501.5 167q46.5 63 46.5 184q0 120 -46.5 182.5t-135.5 62.5q-90 0 -136.5 -62.5t-46.5 -182.5q0 -121 46.5 -184t136.5 -63q89 0 135.5 63z" />
    <glyph glyph-name="Oslash" unicode="&#xd8;" horiz-adv-x="731" 
d="M566 646l53 59q8 11 19 11t25 -13t14 -24q0 -8 -9 -17l-55 -62q68 -93 68 -249q0 -174 -81.5 -266t-234.5 -92q-142 0 -222 80l-61 -69q-10 -11 -19 -11q-11 0 -25 12.5t-14 24.5q0 8 9 17l68 77q-52 89 -52 227q0 174 81.5 265t234.5 91q123 0 201 -61zM229.5 533.5
q-46.5 -62.5 -46.5 -182.5q0 -64 16 -118l284 320q-45 43 -117 43q-90 0 -136.5 -62.5zM229 168q46 -64 137 -64q89 0 135.5 63t46.5 184q0 88 -26 146z" />
    <glyph glyph-name="Oslashacute" unicode="&#x1fe;" horiz-adv-x="731" 
d="M566 646l53 59q8 11 19 11t25 -13t14 -24q0 -8 -9 -17l-55 -62q68 -93 68 -249q0 -174 -81.5 -266t-234.5 -92q-142 0 -222 80l-61 -69q-10 -11 -19 -11q-11 0 -25 12.5t-14 24.5q0 8 9 17l68 77q-52 89 -52 227q0 174 81.5 265t234.5 91q123 0 201 -61zM229.5 533.5
q-46.5 -62.5 -46.5 -182.5q0 -64 16 -118l284 320q-45 43 -117 43q-90 0 -136.5 -62.5zM229 168q46 -64 137 -64q89 0 135.5 63t46.5 184q0 88 -26 146zM488.5 907q13.5 -3 13.5 -10q0 -6 -11.5 -20t-37.5 -42l-52 -57q-20 -22 -66 -22q-16 0 -22 3t-6 10q0 4 6.5 16.5
t13.5 25.5t11 19q34 60 31 54q16 26 77 26q29 0 42.5 -3z" />
    <glyph glyph-name="Otilde" unicode="&#xd5;" horiz-adv-x="731" 
d="M599.5 616q81.5 -91 81.5 -265t-81.5 -266t-234.5 -92t-234.5 92t-81.5 266t81.5 265t234.5 91t234.5 -91zM229.5 533.5q-46.5 -62.5 -46.5 -182.5q0 -121 46.5 -184t136.5 -63q89 0 135.5 63t46.5 184q0 120 -46.5 182.5t-135.5 62.5q-90 0 -136.5 -62.5zM325.5 864
q23.5 -6 46.5 -13q48 -15 68 -16q21 0 37 21q13 16 25 16q4 0 12 -2l10 -3q18 -6 18 -21q0 -6 -3 -14q-12 -32 -38.5 -51t-63.5 -19q-25 0 -85 18q-19 6 -38 11t-31 5q-21 0 -37 -21q-12 -16 -24 -16q-4 0 -12 2l-11 4q-18 6 -18 22q0 7 3 13q13 32 39.5 51t63.5 19
q15 0 38.5 -6z" />
    <glyph glyph-name="OE" unicode="&#x152;" horiz-adv-x="1021" 
d="M968 100.5q6 -10.5 6 -32.5v-25q0 -22 -6 -32.5t-20 -10.5h-362q-19 0 -27.5 9t-8.5 28v13q-76 -57 -191 -57q-150 0 -230 92t-80 266t80 265t230 91q116 0 191 -57v15q0 18 8.5 26.5t27.5 8.5h361q14 0 20 -10.5t6 -32.5v-25q0 -22 -6 -32.5t-20 -10.5h-267v-175h239
q14 0 20 -10.5t6 -32.5v-25q0 -22 -6 -32.5t-20 -10.5h-239v-192h268q14 0 20 -10.5zM501.5 167q46.5 63 46.5 184q0 120 -46.5 182.5t-135.5 62.5q-90 0 -136.5 -62.5t-46.5 -182.5q0 -121 46.5 -184t136.5 -63q89 0 135.5 63z" />
    <glyph glyph-name="P" unicode="P" horiz-adv-x="570" 
d="M481 656q70 -44 70 -167q0 -86 -40.5 -133.5t-91 -64t-90.5 -16.5h-124v-249q0 -28 -53 -28h-24q-53 0 -53 28v638q0 19 8.5 27.5t27.5 8.5h208q92 0 162 -44zM205 589v-202h113q39 0 69.5 22.5t30.5 79.5q0 55 -31 77.5t-74 22.5h-108z" />
    <glyph glyph-name="Thorn" unicode="&#xde;" horiz-adv-x="567" 
d="M204 674v-86h118q92 0 162.5 -44.5t70.5 -166.5q0 -86 -40.5 -133.5t-91.5 -64t-91 -16.5h-128v-137q0 -28 -53 -28h-24q-53 0 -53 28v648q0 28 53 28h24q53 0 53 -28zM204 477v-203h118q39 0 69 23t30 80q0 55 -31 77.5t-73 22.5h-113z" />
    <glyph glyph-name="Q" unicode="Q" horiz-adv-x="731" 
d="M599.5 615q81.5 -92 81.5 -266q0 -127 -44.5 -210t-128.5 -117v-4l169 -58q14 -5 14 -16q0 -9 -7 -31.5t-18.5 -41t-24.5 -18.5q-8 0 -176 67l-231 92q-91 36 -138 121t-47 216q0 174 81.5 266t234.5 92t234.5 -92zM230 532.5q-47 -63.5 -47 -183.5q0 -121 47 -185
t136 -64q88 0 135 64t47 185q0 120 -47 183.5t-135 63.5q-89 0 -136 -63.5z" />
    <glyph glyph-name="R" unicode="R" horiz-adv-x="610" 
d="M547 516q0 -58 -31.5 -100t-85.5 -63v-4q45 -15 79 -104l84 -211q5 -13 5 -17q0 -19 -54 -19h-30q-44 0 -51 19l-78 196q-19 41 -43.5 57t-74.5 16h-58v-260q0 -28 -53 -28h-24q-53 0 -53 28v638q0 19 8.5 27.5t27.5 8.5h186q246 0 246 -184zM209 589v-190h108
q40 0 68 29t28 70q0 44 -27.5 67.5t-75.5 23.5h-101z" />
    <glyph glyph-name="Racute" unicode="&#x154;" horiz-adv-x="610" 
d="M547 516q0 -58 -31.5 -100t-85.5 -63v-4q45 -15 79 -104l84 -211q5 -13 5 -17q0 -19 -54 -19h-30q-44 0 -51 19l-78 196q-19 41 -43.5 57t-74.5 16h-58v-260q0 -28 -53 -28h-24q-53 0 -53 28v638q0 19 8.5 27.5t27.5 8.5h186q246 0 246 -184zM209 589v-190h108
q40 0 68 29t28 70q0 44 -27.5 67.5t-75.5 23.5h-101zM427.5 907q13.5 -3 13.5 -10q0 -6 -11.5 -20t-37.5 -42l-52 -57q-20 -22 -66 -22q-16 0 -22 3t-6 10q0 4 6.5 16.5t13.5 25.5t11 19q34 60 31 54q16 26 77 26q29 0 42.5 -3z" />
    <glyph glyph-name="Rcaron" unicode="&#x158;" horiz-adv-x="610" 
d="M547 516q0 -58 -31.5 -100t-85.5 -63v-4q45 -15 79 -104l84 -211q5 -13 5 -17q0 -19 -54 -19h-30q-44 0 -51 19l-78 196q-19 41 -43.5 57t-74.5 16h-58v-260q0 -28 -53 -28h-24q-53 0 -53 28v638q0 19 8.5 27.5t27.5 8.5h186q246 0 246 -184zM209 589v-190h108
q40 0 68 29t28 70q0 44 -27.5 67.5t-75.5 23.5h-101zM437 885q0 -6 -6 -15l-62 -97q-8 -12 -21 -16t-35 -4h-16q-21 0 -34.5 4t-20.5 16l-62 97q-6 9 -6 16q0 11 21 11h15q39 0 55 -20l40 -52l41 52q14 20 55 20h15q21 0 21 -12z" />
    <glyph glyph-name="Rcommaaccent" unicode="&#x156;" horiz-adv-x="610" 
d="M547 516q0 -58 -31.5 -100t-85.5 -63v-4q45 -15 79 -104l84 -211q5 -13 5 -17q0 -19 -54 -19h-30q-44 0 -51 19l-78 196q-19 41 -43.5 57t-74.5 16h-58v-260q0 -28 -53 -28h-24q-53 0 -53 28v638q0 19 8.5 27.5t27.5 8.5h186q246 0 246 -184zM209 589v-190h108
q40 0 68 29t28 70q0 44 -27.5 67.5t-75.5 23.5h-101zM348 -61.5q12 -10.5 12 -27.5q0 -36 -18.5 -70.5t-44 -56.5t-43.5 -22q-14 0 -26.5 5t-12.5 14q0 6 3.5 14t4.5 11q11 25 17 47t6 56q0 19 13 29.5t40 10.5h15q22 0 34 -10.5z" />
    <glyph glyph-name="uni1E5A" unicode="&#x1e5a;" horiz-adv-x="610" 
d="M547 516q0 -58 -31.5 -100t-85.5 -63v-4q45 -15 79 -104l84 -211q5 -13 5 -17q0 -19 -54 -19h-30q-44 0 -51 19l-78 196q-19 41 -43.5 57t-74.5 16h-58v-260q0 -28 -53 -28h-24q-53 0 -53 28v638q0 19 8.5 27.5t27.5 8.5h186q246 0 246 -184zM209 589v-190h108
q40 0 68 29t28 70q0 44 -27.5 67.5t-75.5 23.5h-101zM361 -108v-57q0 -28 -54 -28q-28 0 -40.5 7t-12.5 21v57q0 28 54 28q53 0 53 -28z" />
    <glyph glyph-name="S" unicode="S" horiz-adv-x="500" 
d="M355 697.5q40 -9.5 65 -24.5t25 -32q0 -19 -16 -47t-30 -28q-4 0 -23 8.5t-41.5 15t-54.5 6.5q-54 0 -80 -21.5t-26 -55.5q0 -29 15 -48t37 -30t66 -28q58 -24 94.5 -45t63 -61.5t26.5 -103.5q0 -105 -64 -157.5t-160 -52.5q-65 0 -116.5 13.5t-80 33t-28.5 35.5
q0 12 9.5 30.5t22 32.5t20.5 14q6 0 24 -10q31 -17 61.5 -27.5t70.5 -10.5q46 0 77 21.5t31 65.5q0 27 -16 46t-39.5 31.5t-66.5 30.5q-25 10 -31 13q-46 20 -77 42.5t-51.5 60.5t-20.5 96q0 63 31.5 107.5t84 66.5t115.5 22q43 0 83 -9.5z" />
    <glyph glyph-name="Sacute" unicode="&#x15a;" horiz-adv-x="500" 
d="M355 697.5q40 -9.5 65 -24.5t25 -32q0 -19 -16 -47t-30 -28q-4 0 -23 8.5t-41.5 15t-54.5 6.5q-54 0 -80 -21.5t-26 -55.5q0 -29 15 -48t37 -30t66 -28q58 -24 94.5 -45t63 -61.5t26.5 -103.5q0 -105 -64 -157.5t-160 -52.5q-65 0 -116.5 13.5t-80 33t-28.5 35.5
q0 12 9.5 30.5t22 32.5t20.5 14q6 0 24 -10q31 -17 61.5 -27.5t70.5 -10.5q46 0 77 21.5t31 65.5q0 27 -16 46t-39.5 31.5t-66.5 30.5q-25 10 -31 13q-46 20 -77 42.5t-51.5 60.5t-20.5 96q0 63 31.5 107.5t84 66.5t115.5 22q43 0 83 -9.5zM372.5 907q13.5 -3 13.5 -10
q0 -6 -11.5 -20t-37.5 -42l-52 -57q-20 -22 -66 -22q-16 0 -22 3t-6 10q0 4 6.5 16.5t13.5 25.5t11 19q34 60 31 54q16 26 77 26q29 0 42.5 -3z" />
    <glyph glyph-name="Scaron" unicode="&#x160;" horiz-adv-x="500" 
d="M355 697.5q40 -9.5 65 -24.5t25 -32q0 -19 -16 -47t-30 -28q-4 0 -23 8.5t-41.5 15t-54.5 6.5q-54 0 -80 -21.5t-26 -55.5q0 -29 15 -48t37 -30t66 -28q58 -24 94.5 -45t63 -61.5t26.5 -103.5q0 -105 -64 -157.5t-160 -52.5q-65 0 -116.5 13.5t-80 33t-28.5 35.5
q0 12 9.5 30.5t22 32.5t20.5 14q6 0 24 -10q31 -17 61.5 -27.5t70.5 -10.5q46 0 77 21.5t31 65.5q0 27 -16 46t-39.5 31.5t-66.5 30.5q-25 10 -31 13q-46 20 -77 42.5t-51.5 60.5t-20.5 96q0 63 31.5 107.5t84 66.5t115.5 22q43 0 83 -9.5zM382 885q0 -6 -6 -15l-62 -97
q-8 -12 -21 -16t-35 -4h-16q-21 0 -34.5 4t-20.5 16l-62 97q-6 9 -6 16q0 11 21 11h15q39 0 55 -20l40 -52l41 52q14 20 55 20h15q21 0 21 -12z" />
    <glyph glyph-name="Scedilla" unicode="&#x15e;" horiz-adv-x="500" 
d="M420.5 53.5q-55.5 -52.5 -141.5 -59.5l-10 -34q32 -3 57 -20.5t25 -54.5q0 -96 -118 -96q-44 0 -84.5 13t-40.5 34q0 18 9 28t18 10q8 0 30 -8q35 -13 58 -13q36 0 36 24q0 11 -7.5 17t-23.5 12q-13 5 -19.5 9.5t-6.5 12.5t18 66q-57 3 -101 16.5t-68 31.5t-24 33
q0 12 9.5 30.5t22 32.5t20.5 14q6 0 24 -10q31 -17 61.5 -27.5t70.5 -10.5q46 0 77 21.5t31 65.5q0 27 -16 46t-39.5 31.5t-66.5 30.5q-25 10 -31 13q-46 20 -77 42.5t-51.5 60.5t-20.5 96q0 63 31.5 107.5t84 66.5t115.5 22q43 0 83 -9.5t65 -24.5t25 -32q0 -19 -16 -47
t-30 -28q-4 0 -23 8.5t-41.5 15t-54.5 6.5q-54 0 -80 -21.5t-26 -55.5q0 -29 15 -48t37 -30t66 -28q58 -24 94.5 -45t63 -61.5t26.5 -103.5q0 -97 -55.5 -149.5z" />
    <glyph glyph-name="Scircumflex" unicode="&#x15c;" horiz-adv-x="500" 
d="M355 697.5q40 -9.5 65 -24.5t25 -32q0 -19 -16 -47t-30 -28q-4 0 -23 8.5t-41.5 15t-54.5 6.5q-54 0 -80 -21.5t-26 -55.5q0 -29 15 -48t37 -30t66 -28q58 -24 94.5 -45t63 -61.5t26.5 -103.5q0 -105 -64 -157.5t-160 -52.5q-65 0 -116.5 13.5t-80 33t-28.5 35.5
q0 12 9.5 30.5t22 32.5t20.5 14q6 0 24 -10q31 -17 61.5 -27.5t70.5 -10.5q46 0 77 21.5t31 65.5q0 27 -16 46t-39.5 31.5t-66.5 30.5q-25 10 -31 13q-46 20 -77 42.5t-51.5 60.5t-20.5 96q0 63 31.5 107.5t84 66.5t115.5 22q43 0 83 -9.5zM293 891q13 -4 21 -16l62 -97
q6 -9 6 -16q0 -12 -21 -12h-15q-40 0 -55 20l-41 53l-40 -52q-9 -12 -22.5 -16.5t-32.5 -4.5h-15q-21 0 -21 12q0 7 6 16l62 97q7 12 20.5 16t34.5 4h16q22 0 35 -4z" />
    <glyph glyph-name="Scommaaccent" unicode="&#x218;" horiz-adv-x="500" 
d="M355 697.5q40 -9.5 65 -24.5t25 -32q0 -19 -16 -47t-30 -28q-4 0 -23 8.5t-41.5 15t-54.5 6.5q-54 0 -80 -21.5t-26 -55.5q0 -29 15 -48t37 -30t66 -28q58 -24 94.5 -45t63 -61.5t26.5 -103.5q0 -105 -64 -157.5t-160 -52.5q-65 0 -116.5 13.5t-80 33t-28.5 35.5
q0 12 9.5 30.5t22 32.5t20.5 14q6 0 24 -10q31 -17 61.5 -27.5t70.5 -10.5q46 0 77 21.5t31 65.5q0 27 -16 46t-39.5 31.5t-66.5 30.5q-25 10 -31 13q-46 20 -77 42.5t-51.5 60.5t-20.5 96q0 63 31.5 107.5t84 66.5t115.5 22q43 0 83 -9.5zM293 -61.5q12 -10.5 12 -27.5
q0 -36 -18.5 -70.5t-44 -56.5t-43.5 -22q-14 0 -26.5 5t-12.5 14q0 6 3.5 14t4.5 11q11 25 17 47t6 56q0 19 13 29.5t40 10.5h15q22 0 34 -10.5z" />
    <glyph glyph-name="uni1E62" unicode="&#x1e62;" horiz-adv-x="500" 
d="M355 697.5q40 -9.5 65 -24.5t25 -32q0 -19 -16 -47t-30 -28q-4 0 -23 8.5t-41.5 15t-54.5 6.5q-54 0 -80 -21.5t-26 -55.5q0 -29 15 -48t37 -30t66 -28q58 -24 94.5 -45t63 -61.5t26.5 -103.5q0 -105 -64 -157.5t-160 -52.5q-65 0 -116.5 13.5t-80 33t-28.5 35.5
q0 12 9.5 30.5t22 32.5t20.5 14q6 0 24 -10q31 -17 61.5 -27.5t70.5 -10.5q46 0 77 21.5t31 65.5q0 27 -16 46t-39.5 31.5t-66.5 30.5q-25 10 -31 13q-46 20 -77 42.5t-51.5 60.5t-20.5 96q0 63 31.5 107.5t84 66.5t115.5 22q43 0 83 -9.5zM306 -108v-57q0 -28 -54 -28
q-28 0 -40.5 7t-12.5 21v57q0 28 54 28q53 0 53 -28z" />
    <glyph glyph-name="uni1E9E" unicode="&#x1e9e;" horiz-adv-x="700" 
d="M623.5 338q45.5 -47 45.5 -134q0 -68 -30 -115.5t-80.5 -71.5t-111.5 -24q-64 0 -119 19.5t-62 53.5q0 16 15.5 41t28.5 25q8 0 18 -5.5t13 -6.5q20 -12 40.5 -19.5t47.5 -7.5q47 0 80 28.5t33 83.5q0 113 -126 113h-30q-11 0 -22.5 28t-11.5 48q0 7 3 11l118 180
q-57 11 -119 11q-75 0 -111.5 -41t-36.5 -125v-404q0 -28 -53 -28h-25q-53 0 -53 28v405q0 136 70 206t207 70q63 0 128 -7t117 -17q9 -1 20.5 -30t11.5 -48q0 -5 -2 -9l-126 -189q77 -22 122.5 -69z" />
    <glyph glyph-name="uni018F" unicode="&#x18f;" horiz-adv-x="672" 
d="M106 83.5q-65 87.5 -65 235.5q0 11 17.5 31.5t26.5 20.5h378q-9 128 -50 182t-120 54q-47 0 -84 -12t-76 -31q-24 -12 -30 -12q-13 0 -29 26t-16 40q0 25 38.5 45.5t95 32t106.5 11.5q149 0 222 -96.5t73 -278.5q0 -171 -75.5 -253.5t-214.5 -82.5q-132 0 -197 87.5z
M412.5 141q40.5 44 50.5 141h-298q0 -89 34.5 -137t104.5 -48q68 0 108.5 44z" />
    <glyph glyph-name="T" unicode="T" horiz-adv-x="549" 
d="M530 689.5q6 -10.5 6 -32.5v-25q0 -22 -6 -32.5t-20 -10.5h-170v-563q0 -28 -53 -28h-25q-53 0 -53 28v563h-171q-14 0 -20 10.5t-6 32.5v25q0 22 6 32.5t20 10.5h472q14 0 20 -10.5z" />
    <glyph glyph-name="Tbar" unicode="&#x166;" horiz-adv-x="549" 
d="M530 689.5q6 -10.5 6 -32.5v-25q0 -22 -6 -32.5t-20 -10.5h-170v-195h117q14 0 20.5 -8.5t6.5 -27.5v-13q0 -20 -6.5 -28.5t-20.5 -8.5h-117v-282q0 -28 -53 -28h-25q-53 0 -53 28v282h-110q-14 0 -20 9t-6 28v13q0 19 6 27.5t20 8.5h110v195h-171q-14 0 -20 10.5
t-6 32.5v25q0 22 6 32.5t20 10.5h472q14 0 20 -10.5z" />
    <glyph glyph-name="Tcaron" unicode="&#x164;" horiz-adv-x="549" 
d="M530 689.5q6 -10.5 6 -32.5v-25q0 -22 -6 -32.5t-20 -10.5h-170v-563q0 -28 -53 -28h-25q-53 0 -53 28v563h-171q-14 0 -20 10.5t-6 32.5v25q0 22 6 32.5t20 10.5h472q14 0 20 -10.5zM407 885q0 -6 -6 -15l-62 -97q-8 -12 -21 -16t-35 -4h-16q-21 0 -34.5 4t-20.5 16
l-62 97q-6 9 -6 16q0 11 21 11h15q39 0 55 -20l40 -52l41 52q14 20 55 20h15q21 0 21 -12z" />
    <glyph glyph-name="uni0162" unicode="&#x162;" horiz-adv-x="549" 
d="M530 689.5q6 -10.5 6 -32.5v-25q0 -22 -6 -32.5t-20 -10.5h-170v-563q0 -23 -35 -27l-11 -39q32 -3 57 -20.5t25 -54.5q0 -96 -118 -96q-44 0 -84.5 13t-40.5 34q0 18 9 28t18 10q8 0 30 -8q35 -13 58 -13q36 0 36 24q0 11 -7.5 17t-23.5 12q-13 5 -19.5 9.5t-6.5 12.5
q0 9 20 71q-38 3 -38 27v563h-171q-14 0 -20 10.5t-6 32.5v25q0 22 6 32.5t20 10.5h472q14 0 20 -10.5z" />
    <glyph glyph-name="uni021A" unicode="&#x21a;" horiz-adv-x="549" 
d="M530 689.5q6 -10.5 6 -32.5v-25q0 -22 -6 -32.5t-20 -10.5h-170v-563q0 -28 -53 -28h-25q-53 0 -53 28v563h-171q-14 0 -20 10.5t-6 32.5v25q0 22 6 32.5t20 10.5h472q14 0 20 -10.5zM318 -61.5q12 -10.5 12 -27.5q0 -36 -18.5 -70.5t-44 -56.5t-43.5 -22q-14 0 -26.5 5
t-12.5 14q0 6 3.5 14t4.5 11q11 25 17 47t6 56q0 19 13 29.5t40 10.5h15q22 0 34 -10.5z" />
    <glyph glyph-name="uni1E6C" unicode="&#x1e6c;" horiz-adv-x="549" 
d="M530 689.5q6 -10.5 6 -32.5v-25q0 -22 -6 -32.5t-20 -10.5h-170v-563q0 -28 -53 -28h-25q-53 0 -53 28v563h-171q-14 0 -20 10.5t-6 32.5v25q0 22 6 32.5t20 10.5h472q14 0 20 -10.5zM331 -108v-57q0 -28 -54 -28q-28 0 -40.5 7t-12.5 21v57q0 28 54 28q53 0 53 -28z" />
    <glyph glyph-name="U" unicode="U" horiz-adv-x="712" 
d="M640 674v-444q0 -113 -74.5 -175t-209.5 -62q-136 0 -210 62t-74 175v444q0 28 53 28h24q53 0 53 -28v-438q0 -58 43.5 -95t110.5 -37t110.5 37t43.5 95v438q0 28 53 28h24q53 0 53 -28z" />
    <glyph glyph-name="Uacute" unicode="&#xda;" horiz-adv-x="712" 
d="M640 674v-444q0 -113 -74.5 -175t-209.5 -62q-136 0 -210 62t-74 175v444q0 28 53 28h24q53 0 53 -28v-438q0 -58 43.5 -95t110.5 -37t110.5 37t43.5 95v438q0 28 53 28h24q53 0 53 -28zM478.5 907q13.5 -3 13.5 -10q0 -6 -11.5 -20t-37.5 -42l-52 -57q-20 -22 -66 -22
q-16 0 -22 3t-6 10q0 4 6.5 16.5t13.5 25.5t11 19q34 60 31 54q16 26 77 26q29 0 42.5 -3z" />
    <glyph glyph-name="Ubreve" unicode="&#x16c;" horiz-adv-x="712" 
d="M640 674v-444q0 -113 -74.5 -175t-209.5 -62q-136 0 -210 62t-74 175v444q0 28 53 28h24q53 0 53 -28v-438q0 -58 43.5 -95t110.5 -37t110.5 37t43.5 95v438q0 28 53 28h24q53 0 53 -28zM502 869q0 -48 -42.5 -80.5t-103.5 -32.5t-103.5 32.5t-42.5 80.5q0 23 28 23
q10 0 15 -3.5t8.5 -9.5t5.5 -8q23 -33 89 -33q65 0 91 35q2 2 6 8t9 8.5t12 2.5q28 0 28 -23z" />
    <glyph glyph-name="Ucircumflex" unicode="&#xdb;" horiz-adv-x="712" 
d="M640 674v-444q0 -113 -74.5 -175t-209.5 -62q-136 0 -210 62t-74 175v444q0 28 53 28h24q53 0 53 -28v-438q0 -58 43.5 -95t110.5 -37t110.5 37t43.5 95v438q0 28 53 28h24q53 0 53 -28zM399 891q13 -4 21 -16l62 -97q6 -9 6 -16q0 -12 -21 -12h-15q-40 0 -55 20l-41 53
l-40 -52q-9 -12 -22.5 -16.5t-32.5 -4.5h-15q-21 0 -21 12q0 7 6 16l62 97q7 12 20.5 16t34.5 4h16q22 0 35 -4z" />
    <glyph glyph-name="Udieresis" unicode="&#xdc;" horiz-adv-x="712" 
d="M640 674v-444q0 -113 -74.5 -175t-209.5 -62q-136 0 -210 62t-74 175v444q0 28 53 28h24q53 0 53 -28v-438q0 -58 43.5 -95t110.5 -37t110.5 37t43.5 95v438q0 28 53 28h24q53 0 53 -28zM326 851v-57q0 -28 -54 -28q-28 0 -40.5 7t-12.5 21v57q0 28 54 28q53 0 53 -28z
M493 851v-57q0 -28 -54 -28q-28 0 -40.5 7t-12.5 21v57q0 28 54 28q53 0 53 -28z" />
    <glyph glyph-name="uni1EE4" unicode="&#x1ee4;" horiz-adv-x="712" 
d="M640 674v-444q0 -113 -74.5 -175t-209.5 -62q-136 0 -210 62t-74 175v444q0 28 53 28h24q53 0 53 -28v-438q0 -58 43.5 -95t110.5 -37t110.5 37t43.5 95v438q0 28 53 28h24q53 0 53 -28zM412 -108v-57q0 -28 -54 -28q-28 0 -40.5 7t-12.5 21v57q0 28 54 28q53 0 53 -28z
" />
    <glyph glyph-name="Ugrave" unicode="&#xd9;" horiz-adv-x="712" 
d="M640 674v-444q0 -113 -74.5 -175t-209.5 -62q-136 0 -210 62t-74 175v444q0 28 53 28h24q53 0 53 -28v-438q0 -58 43.5 -95t110.5 -37t110.5 37t43.5 95v438q0 28 53 28h24q53 0 53 -28zM360 884q24 -43 37 -64q12 -20 19 -33t7 -18q0 -7 -6 -10t-22 -3q-47 0 -67 22
l-53 58q-25 28 -36 41.5t-11 19.5q0 7 13.5 10t42.5 3q62 0 76 -26z" />
    <glyph glyph-name="uni1EE6" unicode="&#x1ee6;" horiz-adv-x="712" 
d="M640 674v-444q0 -113 -74.5 -175t-209.5 -62q-136 0 -210 62t-74 175v444q0 28 53 28h24q53 0 53 -28v-438q0 -58 43.5 -95t110.5 -37t110.5 37t43.5 95v438q0 28 53 28h24q53 0 53 -28zM382 863.5q-10 6.5 -24 6.5q-16 0 -28.5 -6t-14.5 -6q-6 0 -17 14.5t-11 24.5
t26.5 20.5t52.5 10.5q46 0 75 -19.5t29 -56.5q0 -26 -19.5 -51t-43.5 -41t-34 -16q-13 0 -29.5 7.5t-16.5 13.5q0 7 6 13t20 17q19 15 29 26t10 25q0 11 -10 17.5z" />
    <glyph glyph-name="Uhorn" unicode="&#x1af;" horiz-adv-x="712" 
d="M712.5 694q-23.5 -24 -72.5 -29v-435q0 -113 -74.5 -175t-209.5 -62q-136 0 -210 62t-74 175v444q0 28 53 28h24q53 0 53 -28v-438q0 -58 43.5 -95t110.5 -37t110.5 37t43.5 95v438q0 28 53 28h50q50 0 50 35q1 10 -3.5 17.5t-13.5 20.5q-10 14 -10 18q0 12 11 17l29 20
q5 5 14 5q18 0 32 -27.5t14 -52.5q0 -37 -23.5 -61z" />
    <glyph glyph-name="uni1EE8" unicode="&#x1ee8;" horiz-adv-x="712" 
d="M303 759q-6 3 -6 10q0 4 6.5 16.5t13.5 25.5t11 19q34 60 31 54q16 26 77 26q29 0 42.5 -3t13.5 -10q0 -6 -11.5 -20t-37.5 -42l-52 -57q-20 -22 -66 -22q-16 0 -22 3zM712.5 694q-23.5 -24 -72.5 -29v-435q0 -113 -74.5 -175t-209.5 -62q-136 0 -210 62t-74 175v444
q0 28 53 28h24q53 0 53 -28v-438q0 -58 43.5 -95t110.5 -37t110.5 37t43.5 95v438q0 28 53 28h50q50 0 50 35q1 10 -3.5 17.5t-13.5 20.5q-10 14 -10 18q0 12 11 17l29 20q5 5 14 5q18 0 32 -27.5t14 -52.5q0 -37 -23.5 -61z" />
    <glyph glyph-name="uni1EF0" unicode="&#x1ef0;" horiz-adv-x="712" 
d="M712.5 694q-23.5 -24 -72.5 -29v-435q0 -113 -74.5 -175t-209.5 -62q-136 0 -210 62t-74 175v444q0 28 53 28h24q53 0 53 -28v-438q0 -58 43.5 -95t110.5 -37t110.5 37t43.5 95v438q0 28 53 28h50q50 0 50 35q1 10 -3.5 17.5t-13.5 20.5q-10 14 -10 18q0 12 11 17l29 20
q5 5 14 5q18 0 32 -27.5t14 -52.5q0 -37 -23.5 -61zM412 -108v-57q0 -28 -54 -28q-28 0 -40.5 7t-12.5 21v57q0 28 54 28q53 0 53 -28z" />
    <glyph glyph-name="uni1EEA" unicode="&#x1eea;" horiz-adv-x="712" 
d="M328 778l-53 58q-25 28 -36 41.5t-11 19.5q0 7 13.5 10t42.5 3q62 0 76 -26q24 -43 37 -64q12 -20 19 -33t7 -18q0 -7 -6 -10t-22 -3q-47 0 -67 22zM712.5 694q-23.5 -24 -72.5 -29v-435q0 -113 -74.5 -175t-209.5 -62q-136 0 -210 62t-74 175v444q0 28 53 28h24
q53 0 53 -28v-438q0 -58 43.5 -95t110.5 -37t110.5 37t43.5 95v438q0 28 53 28h50q50 0 50 35q1 10 -3.5 17.5t-13.5 20.5q-10 14 -10 18q0 12 11 17l29 20q5 5 14 5q18 0 32 -27.5t14 -52.5q0 -37 -23.5 -61z" />
    <glyph glyph-name="uni1EEC" unicode="&#x1eec;" horiz-adv-x="712" 
d="M298 872.5q-11 14.5 -11 24.5t26.5 20.5t52.5 10.5q46 0 75 -19.5t29 -56.5q0 -26 -19.5 -51t-43.5 -41t-34 -16q-13 0 -29.5 7.5t-16.5 13.5q0 7 6 13t20 17q19 15 29 26t10 25q0 11 -10 17.5t-24 6.5q-16 0 -28.5 -6t-14.5 -6q-6 0 -17 14.5zM712.5 694
q-23.5 -24 -72.5 -29v-435q0 -113 -74.5 -175t-209.5 -62q-136 0 -210 62t-74 175v444q0 28 53 28h24q53 0 53 -28v-438q0 -58 43.5 -95t110.5 -37t110.5 37t43.5 95v438q0 28 53 28h50q50 0 50 35q1 10 -3.5 17.5t-13.5 20.5q-10 14 -10 18q0 12 11 17l29 20q5 5 14 5
q18 0 32 -27.5t14 -52.5q0 -37 -23.5 -61z" />
    <glyph glyph-name="uni1EEE" unicode="&#x1eee;" horiz-adv-x="712" 
d="M171 787q0 7 3 13q13 32 39.5 51t63.5 19q15 0 38.5 -6t46.5 -13q48 -15 68 -16q21 0 37 21q13 16 25 16q4 0 12 -2l10 -3q18 -6 18 -21q0 -6 -3 -14q-12 -32 -38.5 -51t-63.5 -19q-25 0 -85 18q-19 6 -38 11t-31 5q-21 0 -37 -21q-12 -16 -24 -16q-4 0 -12 2l-11 4
q-18 6 -18 22zM712.5 694q-23.5 -24 -72.5 -29v-435q0 -113 -74.5 -175t-209.5 -62q-136 0 -210 62t-74 175v444q0 28 53 28h24q53 0 53 -28v-438q0 -58 43.5 -95t110.5 -37t110.5 37t43.5 95v438q0 28 53 28h50q50 0 50 35q1 10 -3.5 17.5t-13.5 20.5q-10 14 -10 18
q0 12 11 17l29 20q5 5 14 5q18 0 32 -27.5t14 -52.5q0 -37 -23.5 -61z" />
    <glyph glyph-name="Uhungarumlaut" unicode="&#x170;" horiz-adv-x="712" 
d="M640 674v-444q0 -113 -74.5 -175t-209.5 -62q-136 0 -210 62t-74 175v444q0 28 53 28h24q53 0 53 -28v-438q0 -58 43.5 -95t110.5 -37t110.5 37t43.5 95v438q0 28 53 28h24q53 0 53 -28zM398.5 907q13.5 -3 13.5 -10q0 -6 -11.5 -20t-37.5 -42l-52 -57q-20 -22 -66 -22
q-16 0 -22 3t-6 10q0 4 6.5 16.5t13.5 25.5t11 19q34 60 31 54q16 26 77 26q29 0 42.5 -3zM568.5 907q13.5 -3 13.5 -10q0 -6 -11.5 -20t-37.5 -42l-52 -57q-20 -22 -66 -22q-16 0 -22 3t-6 10q0 4 6.5 16.5t13.5 25.5t11 19q34 60 31 54q16 26 77 26q29 0 42.5 -3z" />
    <glyph glyph-name="Umacron" unicode="&#x16a;" horiz-adv-x="712" 
d="M640 674v-444q0 -113 -74.5 -175t-209.5 -62q-136 0 -210 62t-74 175v444q0 28 53 28h24q53 0 53 -28v-438q0 -58 43.5 -95t110.5 -37t110.5 37t43.5 95v438q0 28 53 28h24q53 0 53 -28zM485.5 856.5q6.5 -8.5 6.5 -27.5v-13q0 -20 -6.5 -28.5t-20.5 -8.5h-218
q-14 0 -20 9t-6 28v13q0 19 6 27.5t20 8.5h218q14 0 20.5 -8.5z" />
    <glyph glyph-name="Uogonek" unicode="&#x172;" horiz-adv-x="712" 
d="M640 674v-444q0 -93 -51.5 -152.5t-147.5 -77.5v-4q0 -4 -4 -20q-7 -23 -7 -38q0 -32 18 -41.5t44 -9.5q15 0 28 5q14 4 22 4q21 0 21 -27q0 -30 -22.5 -41t-59.5 -11q-70 0 -94 33t-24 69q0 17 4 38.5t15 36.5q-8 -1 -26 -1q-136 0 -210 62t-74 175v444q0 28 53 28h24
q53 0 53 -28v-438q0 -58 43.5 -95t110.5 -37t110.5 37t43.5 95v438q0 28 53 28h24q53 0 53 -28z" />
    <glyph glyph-name="Uring" unicode="&#x16e;" horiz-adv-x="712" 
d="M640 674v-444q0 -113 -74.5 -175t-209.5 -62q-136 0 -210 62t-74 175v444q0 28 53 28h24q53 0 53 -28v-438q0 -58 43.5 -95t110.5 -37t110.5 37t43.5 95v438q0 28 53 28h24q53 0 53 -28zM422.5 892.5q27.5 -27.5 27.5 -66.5q0 -40 -27.5 -67t-66.5 -27q-40 0 -67 27
t-27 67q0 39 27 66.5t67 27.5q39 0 66.5 -27.5zM327 854.5q-12 -12.5 -12 -29.5t12 -29t29 -12t29 12t12 29t-12 29.5t-29 12.5t-29 -12.5z" />
    <glyph glyph-name="Utilde" unicode="&#x168;" horiz-adv-x="712" 
d="M640 674v-444q0 -113 -74.5 -175t-209.5 -62q-136 0 -210 62t-74 175v444q0 28 53 28h24q53 0 53 -28v-438q0 -58 43.5 -95t110.5 -37t110.5 37t43.5 95v438q0 28 53 28h24q53 0 53 -28zM315.5 864q23.5 -6 46.5 -13q48 -15 68 -16q21 0 37 21q13 16 25 16q4 0 12 -2
l10 -3q18 -6 18 -21q0 -6 -3 -14q-12 -32 -38.5 -51t-63.5 -19q-25 0 -85 18q-19 6 -38 11t-31 5q-21 0 -37 -21q-12 -16 -24 -16q-4 0 -12 2l-11 4q-18 6 -18 22q0 7 3 13q13 32 39.5 51t63.5 19q15 0 38.5 -6z" />
    <glyph glyph-name="V" unicode="V" horiz-adv-x="617" 
d="M604 682q0 -6 -3 -17l-221 -648q-7 -19 -50 -19h-44q-44 0 -51 19l-220 649q-4 12 -4 16q0 20 54 20h25q44 0 52 -24l153 -470l11 -41h3l11 41l156 470q8 24 52 24h22q54 0 54 -20z" />
    <glyph glyph-name="W" unicode="W" horiz-adv-x="882" 
d="M879 679l-2 -14l-167 -648q-2 -9 -15.5 -14t-33.5 -5h-62q-20 0 -33.5 5t-15.5 14l-92 368l-18 91l-18 -91l-94 -368q-3 -9 -16.5 -14t-33.5 -5h-60q-46 0 -50 19l-163 648q-2 10 -2 14q0 23 55 23h20q51 0 57 -26l94 -383l18 -83l9 -43q7 38 30 127l96 388q5 20 49 20
h30q45 0 50 -20l95 -390l17 -76l11 -53l14 61l16 69l94 383q6 26 57 26h9q55 0 55 -23z" />
    <glyph glyph-name="Wacute" unicode="&#x1e82;" horiz-adv-x="882" 
d="M879 679l-2 -14l-167 -648q-2 -9 -15.5 -14t-33.5 -5h-62q-20 0 -33.5 5t-15.5 14l-92 368l-18 91l-18 -91l-94 -368q-3 -9 -16.5 -14t-33.5 -5h-60q-46 0 -50 19l-163 648q-2 10 -2 14q0 23 55 23h20q51 0 57 -26l94 -383l18 -83l9 -43q7 38 30 127l96 388q5 20 49 20
h30q45 0 50 -20l95 -390l17 -76l11 -53l14 61l16 69l94 383q6 26 57 26h9q55 0 55 -23zM563.5 907q13.5 -3 13.5 -10q0 -6 -11.5 -20t-37.5 -42l-52 -57q-20 -22 -66 -22q-16 0 -22 3t-6 10q0 4 6.5 16.5t13.5 25.5t11 19q34 60 31 54q16 26 77 26q29 0 42.5 -3z" />
    <glyph glyph-name="Wcircumflex" unicode="&#x174;" horiz-adv-x="882" 
d="M879 679l-2 -14l-167 -648q-2 -9 -15.5 -14t-33.5 -5h-62q-20 0 -33.5 5t-15.5 14l-92 368l-18 91l-18 -91l-94 -368q-3 -9 -16.5 -14t-33.5 -5h-60q-46 0 -50 19l-163 648q-2 10 -2 14q0 23 55 23h20q51 0 57 -26l94 -383l18 -83l9 -43q7 38 30 127l96 388q5 20 49 20
h30q45 0 50 -20l95 -390l17 -76l11 -53l14 61l16 69l94 383q6 26 57 26h9q55 0 55 -23zM483 891q13 -4 21 -16l62 -97q6 -9 6 -16q0 -12 -21 -12h-15q-40 0 -55 20l-41 53l-40 -52q-9 -12 -22.5 -16.5t-32.5 -4.5h-15q-21 0 -21 12q0 7 6 16l62 97q7 12 20.5 16t34.5 4h16
q22 0 35 -4z" />
    <glyph glyph-name="Wdieresis" unicode="&#x1e84;" horiz-adv-x="882" 
d="M879 679l-2 -14l-167 -648q-2 -9 -15.5 -14t-33.5 -5h-62q-20 0 -33.5 5t-15.5 14l-92 368l-18 91l-18 -91l-94 -368q-3 -9 -16.5 -14t-33.5 -5h-60q-46 0 -50 19l-163 648q-2 10 -2 14q0 23 55 23h20q51 0 57 -26l94 -383l18 -83l9 -43q7 38 30 127l96 388q5 20 49 20
h30q45 0 50 -20l95 -390l17 -76l11 -53l14 61l16 69l94 383q6 26 57 26h9q55 0 55 -23zM411 851v-57q0 -28 -54 -28q-28 0 -40.5 7t-12.5 21v57q0 28 54 28q53 0 53 -28zM578 851v-57q0 -28 -54 -28q-28 0 -40.5 7t-12.5 21v57q0 28 54 28q53 0 53 -28z" />
    <glyph glyph-name="Wgrave" unicode="&#x1e80;" horiz-adv-x="882" 
d="M879 679l-2 -14l-167 -648q-2 -9 -15.5 -14t-33.5 -5h-62q-20 0 -33.5 5t-15.5 14l-92 368l-18 91l-18 -91l-94 -368q-3 -9 -16.5 -14t-33.5 -5h-60q-46 0 -50 19l-163 648q-2 10 -2 14q0 23 55 23h20q51 0 57 -26l94 -383l18 -83l9 -43q7 38 30 127l96 388q5 20 49 20
h30q45 0 50 -20l95 -390l17 -76l11 -53l14 61l16 69l94 383q6 26 57 26h9q55 0 55 -23zM445 884q24 -43 37 -64q12 -20 19 -33t7 -18q0 -7 -6 -10t-22 -3q-47 0 -67 22l-53 58q-25 28 -36 41.5t-11 19.5q0 7 13.5 10t42.5 3q62 0 76 -26z" />
    <glyph glyph-name="X" unicode="X" horiz-adv-x="611" 
d="M583 684q0 -9 -9 -23l-193 -295l209 -327q9 -13 9 -23q0 -18 -57 -18h-31q-42 0 -54 18l-151 236l-156 -237q-7 -10 -19.5 -13.5t-34.5 -3.5h-27q-57 0 -57 18q0 8 9 23l213 326l-189 296q-10 15 -10 23q0 18 58 18h31q42 0 54 -18l131 -206l136 207q6 10 19 13.5t35 3.5
h27q57 0 57 -18z" />
    <glyph glyph-name="Y" unicode="Y" horiz-adv-x="559" 
d="M502 702q55 0 55 -19q0 -6 -9 -22l-203 -320v-315q0 -28 -53 -28h-24q-53 0 -53 28v318l-203 317q-9 16 -9 22q0 19 57 19h32q42 0 54 -18l137 -225l139 226q12 17 55 17h25z" />
    <glyph glyph-name="Yacute" unicode="&#xdd;" horiz-adv-x="559" 
d="M502 702q55 0 55 -19q0 -6 -9 -22l-203 -320v-315q0 -28 -53 -28h-24q-53 0 -53 28v318l-203 317q-9 16 -9 22q0 19 57 19h32q42 0 54 -18l137 -225l139 226q12 17 55 17h25zM402.5 907q13.5 -3 13.5 -10q0 -6 -11.5 -20t-37.5 -42l-52 -57q-20 -22 -66 -22q-16 0 -22 3
t-6 10q0 4 6.5 16.5t13.5 25.5t11 19q34 60 31 54q16 26 77 26q29 0 42.5 -3z" />
    <glyph glyph-name="Ycircumflex" unicode="&#x176;" horiz-adv-x="559" 
d="M502 702q55 0 55 -19q0 -6 -9 -22l-203 -320v-315q0 -28 -53 -28h-24q-53 0 -53 28v318l-203 317q-9 16 -9 22q0 19 57 19h32q42 0 54 -18l137 -225l139 226q12 17 55 17h25zM322 891q13 -4 21 -16l62 -97q6 -9 6 -16q0 -12 -21 -12h-15q-40 0 -55 20l-41 53l-40 -52
q-9 -12 -22.5 -16.5t-32.5 -4.5h-15q-21 0 -21 12q0 7 6 16l62 97q7 12 20.5 16t34.5 4h16q22 0 35 -4z" />
    <glyph glyph-name="Ydieresis" unicode="&#x178;" horiz-adv-x="559" 
d="M502 702q55 0 55 -19q0 -6 -9 -22l-203 -320v-315q0 -28 -53 -28h-24q-53 0 -53 28v318l-203 317q-9 16 -9 22q0 19 57 19h32q42 0 54 -18l137 -225l139 226q12 17 55 17h25zM250 851v-57q0 -28 -54 -28q-28 0 -40.5 7t-12.5 21v57q0 28 54 28q53 0 53 -28zM417 851v-57
q0 -28 -54 -28q-28 0 -40.5 7t-12.5 21v57q0 28 54 28q53 0 53 -28z" />
    <glyph glyph-name="uni1EF4" unicode="&#x1ef4;" horiz-adv-x="559" 
d="M502 702q55 0 55 -19q0 -6 -9 -22l-203 -320v-315q0 -28 -53 -28h-24q-53 0 -53 28v318l-203 317q-9 16 -9 22q0 19 57 19h32q42 0 54 -18l137 -225l139 226q12 17 55 17h25zM337 -108v-57q0 -28 -54 -28q-28 0 -40.5 7t-12.5 21v57q0 28 54 28q53 0 53 -28z" />
    <glyph glyph-name="Ygrave" unicode="&#x1ef2;" horiz-adv-x="559" 
d="M502 702q55 0 55 -19q0 -6 -9 -22l-203 -320v-315q0 -28 -53 -28h-24q-53 0 -53 28v318l-203 317q-9 16 -9 22q0 19 57 19h32q42 0 54 -18l137 -225l139 226q12 17 55 17h25zM284 884q24 -43 37 -64q12 -20 19 -33t7 -18q0 -7 -6 -10t-22 -3q-47 0 -67 22l-53 58
q-25 28 -36 41.5t-11 19.5q0 7 13.5 10t42.5 3q62 0 76 -26z" />
    <glyph glyph-name="uni1EF6" unicode="&#x1ef6;" horiz-adv-x="559" 
d="M502 702q55 0 55 -19q0 -6 -9 -22l-203 -320v-315q0 -28 -53 -28h-24q-53 0 -53 28v318l-203 317q-9 16 -9 22q0 19 57 19h32q42 0 54 -18l137 -225l139 226q12 17 55 17h25zM306 863.5q-10 6.5 -24 6.5q-16 0 -28.5 -6t-14.5 -6q-6 0 -17 14.5t-11 24.5t26.5 20.5
t52.5 10.5q46 0 75 -19.5t29 -56.5q0 -26 -19.5 -51t-43.5 -41t-34 -16q-13 0 -29.5 7.5t-16.5 13.5q0 7 6 13t20 17q19 15 29 26t10 25q0 11 -10 17.5z" />
    <glyph glyph-name="uni1EF8" unicode="&#x1ef8;" horiz-adv-x="559" 
d="M502 702q55 0 55 -19q0 -6 -9 -22l-203 -320v-315q0 -28 -53 -28h-24q-53 0 -53 28v318l-203 317q-9 16 -9 22q0 19 57 19h32q42 0 54 -18l137 -225l139 226q12 17 55 17h25zM239.5 864q23.5 -6 46.5 -13q48 -15 68 -16q21 0 37 21q13 16 25 16q4 0 12 -2l10 -3
q18 -6 18 -21q0 -6 -3 -14q-12 -32 -38.5 -51t-63.5 -19q-25 0 -85 18q-19 6 -38 11t-31 5q-21 0 -37 -21q-12 -16 -24 -16q-4 0 -12 2l-11 4q-18 6 -18 22q0 7 3 13q13 32 39.5 51t63.5 19q15 0 38.5 -6z" />
    <glyph glyph-name="Z" unicode="Z" horiz-adv-x="616" 
d="M565.5 670.5q11.5 -29.5 11.5 -48.5q0 -5 -2 -9l-362 -502h337q14 0 20 -10.5t6 -33.5v-23q0 -23 -6 -33.5t-20 -10.5h-485q-11 0 -22.5 28t-11.5 48q0 5 2 11l363 502h-308q-14 0 -20.5 10.5t-6.5 33.5v23q0 23 6.5 33.5t20.5 10.5h457q9 0 20.5 -29.5z" />
    <glyph glyph-name="Zacute" unicode="&#x179;" horiz-adv-x="616" 
d="M565.5 670.5q11.5 -29.5 11.5 -48.5q0 -5 -2 -9l-362 -502h337q14 0 20 -10.5t6 -33.5v-23q0 -23 -6 -33.5t-20 -10.5h-485q-11 0 -22.5 28t-11.5 48q0 5 2 11l363 502h-308q-14 0 -20.5 10.5t-6.5 33.5v23q0 23 6.5 33.5t20.5 10.5h457q9 0 20.5 -29.5zM430.5 907
q13.5 -3 13.5 -10q0 -6 -11.5 -20t-37.5 -42l-52 -57q-20 -22 -66 -22q-16 0 -22 3t-6 10q0 4 6.5 16.5t13.5 25.5t11 19q34 60 31 54q16 26 77 26q29 0 42.5 -3z" />
    <glyph glyph-name="Zcaron" unicode="&#x17d;" horiz-adv-x="616" 
d="M565.5 670.5q11.5 -29.5 11.5 -48.5q0 -5 -2 -9l-362 -502h337q14 0 20 -10.5t6 -33.5v-23q0 -23 -6 -33.5t-20 -10.5h-485q-11 0 -22.5 28t-11.5 48q0 5 2 11l363 502h-308q-14 0 -20.5 10.5t-6.5 33.5v23q0 23 6.5 33.5t20.5 10.5h457q9 0 20.5 -29.5zM440 885
q0 -6 -6 -15l-62 -97q-8 -12 -21 -16t-35 -4h-16q-21 0 -34.5 4t-20.5 16l-62 97q-6 9 -6 16q0 11 21 11h15q39 0 55 -20l40 -52l41 52q14 20 55 20h15q21 0 21 -12z" />
    <glyph glyph-name="Zdotaccent" unicode="&#x17b;" horiz-adv-x="616" 
d="M565.5 670.5q11.5 -29.5 11.5 -48.5q0 -5 -2 -9l-362 -502h337q14 0 20 -10.5t6 -33.5v-23q0 -23 -6 -33.5t-20 -10.5h-485q-11 0 -22.5 28t-11.5 48q0 5 2 11l363 502h-308q-14 0 -20.5 10.5t-6.5 33.5v23q0 23 6.5 33.5t20.5 10.5h457q9 0 20.5 -29.5zM362 851v-57
q0 -28 -54 -28q-28 0 -40.5 7t-12.5 21v57q0 28 54 28q53 0 53 -28z" />
    <glyph glyph-name="uni1E92" unicode="&#x1e92;" horiz-adv-x="616" 
d="M565.5 670.5q11.5 -29.5 11.5 -48.5q0 -5 -2 -9l-362 -502h337q14 0 20 -10.5t6 -33.5v-23q0 -23 -6 -33.5t-20 -10.5h-485q-11 0 -22.5 28t-11.5 48q0 5 2 11l363 502h-308q-14 0 -20.5 10.5t-6.5 33.5v23q0 23 6.5 33.5t20.5 10.5h457q9 0 20.5 -29.5zM362 -108v-57
q0 -28 -54 -28q-28 0 -40.5 7t-12.5 21v57q0 28 54 28q53 0 53 -28z" />
    <glyph glyph-name="Iacute_J.loclNLD" horiz-adv-x="684" 
d="M263.5 907q13.5 -3 13.5 -10q0 -6 -11.5 -20t-37.5 -42l-52 -57q-20 -22 -66 -22q-16 0 -22 3t-6 10q0 4 6.5 16.5t13.5 25.5t11 19q34 60 31 54q16 26 77 26q29 0 42.5 -3zM668.5 907q13.5 -3 13.5 -10q0 -6 -11.5 -20t-37.5 -42l-52 -57q-20 -22 -66 -22q-16 0 -22 3
t-6 10q0 4 6.5 16.5t13.5 25.5t11 19q34 60 31 54q16 26 77 26q29 0 42.5 -3zM206 674v-648q0 -29 -53 -29h-25q-53 0 -53 29v648q0 29 53 29h25q53 0 53 -29zM612 674v-471q0 -99 -51.5 -154.5t-160.5 -55.5q-40 0 -78 8t-38 33q0 18 9 48t25 31q6 0 22 -4.5t37 -4.5
q55 0 79.5 26.5t24.5 84.5v459q0 29 53 29h25q53 0 53 -29z" />
    <glyph glyph-name="Y.loclGUA" horiz-adv-x="559" 
d="M506 673v-374q0 -163 -51 -235.5t-164 -72.5q-58 0 -107.5 9.5t-79 25t-31.5 33.5q-2 30 -2 39q0 36 12 36q4 0 22 -8q34 -14 70 -24t86 -10q63 0 92 42t29 132v11q-27 -30 -66.5 -49t-81.5 -19q-84 0 -126.5 41t-42.5 121v302q0 28 53 28h19q53 0 53 -28v-285
q0 -36 22.5 -55.5t68.5 -19.5q32 0 57.5 18t43.5 45v297q0 28 52 28h20q52 0 52 -28z" />
    <glyph glyph-name="Yacute.loclGUA" horiz-adv-x="559" 
d="M506 673v-374q0 -163 -51 -235.5t-164 -72.5q-58 0 -107.5 9.5t-79 25t-31.5 33.5q-2 30 -2 39q0 36 12 36q4 0 22 -8q34 -14 70 -24t86 -10q63 0 92 42t29 132v11q-27 -30 -66.5 -49t-81.5 -19q-84 0 -126.5 41t-42.5 121v302q0 28 53 28h19q53 0 53 -28v-285
q0 -36 22.5 -55.5t68.5 -19.5q32 0 57.5 18t43.5 45v297q0 28 52 28h20q52 0 52 -28zM402.5 907q13.5 -3 13.5 -10q0 -6 -11.5 -20t-37.5 -42l-52 -57q-20 -22 -66 -22q-16 0 -22 3t-6 10q0 4 6.5 16.5t13.5 25.5t11 19q34 60 31 54q16 26 77 26q29 0 42.5 -3z" />
    <glyph glyph-name="Ycircumflex.loclGUA" horiz-adv-x="559" 
d="M506 673v-374q0 -163 -51 -235.5t-164 -72.5q-58 0 -107.5 9.5t-79 25t-31.5 33.5q-2 30 -2 39q0 36 12 36q4 0 22 -8q34 -14 70 -24t86 -10q63 0 92 42t29 132v11q-27 -30 -66.5 -49t-81.5 -19q-84 0 -126.5 41t-42.5 121v302q0 28 53 28h19q53 0 53 -28v-285
q0 -36 22.5 -55.5t68.5 -19.5q32 0 57.5 18t43.5 45v297q0 28 52 28h20q52 0 52 -28zM322 891q13 -4 21 -16l62 -97q6 -9 6 -16q0 -12 -21 -12h-15q-40 0 -55 20l-41 53l-40 -52q-9 -12 -22.5 -16.5t-32.5 -4.5h-15q-21 0 -21 12q0 7 6 16l62 97q7 12 20.5 16t34.5 4h16
q22 0 35 -4z" />
    <glyph glyph-name="Ydieresis.loclGUA" horiz-adv-x="559" 
d="M506 673v-374q0 -163 -51 -235.5t-164 -72.5q-58 0 -107.5 9.5t-79 25t-31.5 33.5q-2 30 -2 39q0 36 12 36q4 0 22 -8q34 -14 70 -24t86 -10q63 0 92 42t29 132v11q-27 -30 -66.5 -49t-81.5 -19q-84 0 -126.5 41t-42.5 121v302q0 28 53 28h19q53 0 53 -28v-285
q0 -36 22.5 -55.5t68.5 -19.5q32 0 57.5 18t43.5 45v297q0 28 52 28h20q52 0 52 -28zM250 851v-57q0 -28 -54 -28q-28 0 -40.5 7t-12.5 21v57q0 28 54 28q53 0 53 -28zM417 851v-57q0 -28 -54 -28q-28 0 -40.5 7t-12.5 21v57q0 28 54 28q53 0 53 -28z" />
    <glyph glyph-name="uni1EF4.loclGUA" horiz-adv-x="559" 
d="M506 673v-374q0 -163 -51 -235.5t-164 -72.5q-58 0 -107.5 9.5t-79 25t-31.5 33.5q-2 30 -2 39q0 36 12 36q4 0 22 -8q34 -14 70 -24t86 -10q63 0 92 42t29 132v11q-27 -30 -66.5 -49t-81.5 -19q-84 0 -126.5 41t-42.5 121v302q0 28 53 28h19q53 0 53 -28v-285
q0 -36 22.5 -55.5t68.5 -19.5q32 0 57.5 18t43.5 45v297q0 28 52 28h20q52 0 52 -28zM321 -108v-57q0 -28 -54 -28q-28 0 -40.5 7t-12.5 21v57q0 28 54 28q53 0 53 -28z" />
    <glyph glyph-name="Ygrave.loclGUA" horiz-adv-x="559" 
d="M506 673v-374q0 -163 -51 -235.5t-164 -72.5q-58 0 -107.5 9.5t-79 25t-31.5 33.5q-2 30 -2 39q0 36 12 36q4 0 22 -8q34 -14 70 -24t86 -10q63 0 92 42t29 132v11q-27 -30 -66.5 -49t-81.5 -19q-84 0 -126.5 41t-42.5 121v302q0 28 53 28h19q53 0 53 -28v-285
q0 -36 22.5 -55.5t68.5 -19.5q32 0 57.5 18t43.5 45v297q0 28 52 28h20q52 0 52 -28zM284 884q24 -43 37 -64q12 -20 19 -33t7 -18q0 -7 -6 -10t-22 -3q-47 0 -67 22l-53 58q-25 28 -36 41.5t-11 19.5q0 7 13.5 10t42.5 3q62 0 76 -26z" />
    <glyph glyph-name="uni1EF6.loclGUA" horiz-adv-x="559" 
d="M506 673v-374q0 -163 -51 -235.5t-164 -72.5q-58 0 -107.5 9.5t-79 25t-31.5 33.5q-2 30 -2 39q0 36 12 36q4 0 22 -8q34 -14 70 -24t86 -10q63 0 92 42t29 132v11q-27 -30 -66.5 -49t-81.5 -19q-84 0 -126.5 41t-42.5 121v302q0 28 53 28h19q53 0 53 -28v-285
q0 -36 22.5 -55.5t68.5 -19.5q32 0 57.5 18t43.5 45v297q0 28 52 28h20q52 0 52 -28zM306 863.5q-10 6.5 -24 6.5q-16 0 -28.5 -6t-14.5 -6q-6 0 -17 14.5t-11 24.5t26.5 20.5t52.5 10.5q46 0 75 -19.5t29 -56.5q0 -26 -19.5 -51t-43.5 -41t-34 -16q-13 0 -29.5 7.5
t-16.5 13.5q0 7 6 13t20 17q19 15 29 26t10 25q0 11 -10 17.5z" />
    <glyph glyph-name="uni1EF8.loclGUA" horiz-adv-x="559" 
d="M506 673v-374q0 -163 -51 -235.5t-164 -72.5q-58 0 -107.5 9.5t-79 25t-31.5 33.5q-2 30 -2 39q0 36 12 36q4 0 22 -8q34 -14 70 -24t86 -10q63 0 92 42t29 132v11q-27 -30 -66.5 -49t-81.5 -19q-84 0 -126.5 41t-42.5 121v302q0 28 53 28h19q53 0 53 -28v-285
q0 -36 22.5 -55.5t68.5 -19.5q32 0 57.5 18t43.5 45v297q0 28 52 28h20q52 0 52 -28zM239.5 864q23.5 -6 46.5 -13q48 -15 68 -16q21 0 37 21q13 16 25 16q4 0 12 -2l10 -3q18 -6 18 -21q0 -6 -3 -14q-12 -32 -38.5 -51t-63.5 -19q-25 0 -85 18q-19 6 -38 11t-31 5
q-21 0 -37 -21q-12 -16 -24 -16q-4 0 -12 2l-11 4q-18 6 -18 22q0 7 3 13q13 32 39.5 51t63.5 19q15 0 38.5 -6z" />
    <glyph glyph-name="Cacute.loclPLK" horiz-adv-x="619" 
d="M472.5 698q47.5 -9 78.5 -24.5t31 -33.5q0 -12 -9.5 -31.5t-22 -34.5t-22.5 -15q-3 0 -24.5 10.5t-52.5 18.5t-73 8q-100 0 -147.5 -60.5t-47.5 -185.5q0 -124 47.5 -185t144.5 -61q46 0 80 10t66 25q16 8 21 8q11 0 23 -14.5t20 -33t8 -27.5q0 -23 -34 -41t-84.5 -28
t-99.5 -10q-167 0 -246.5 87t-79.5 271q0 356 330 356q46 0 93.5 -9zM471.5 907q13.5 -3 13.5 -10q0 -6 -7 -18.5t-21 -33.5q-15 -21 -43 -67q-13 -22 -66 -22q-16 0 -22 3t-6 10q0 12 32 115q6 15 25.5 20.5t51.5 5.5q29 0 42.5 -3z" />
    <glyph glyph-name="Nacute.loclPLK" horiz-adv-x="719" 
d="M643 674v-648q0 -28 -53 -28h-31q-21 0 -33.5 4.5t-21.5 17.5l-277 422l-24 39v-455q0 -28 -52 -28h-21q-53 0 -53 28v648q0 28 53 28h35q21 0 34.5 -5t22.5 -19l266 -407l28 -46v449q0 28 53 28h21q53 0 53 -28zM467.5 907q13.5 -3 13.5 -10q0 -6 -7 -18.5t-21 -33.5
q-15 -21 -43 -67q-13 -22 -66 -22q-16 0 -22 3t-6 10q0 12 32 115q6 15 25.5 20.5t51.5 5.5q29 0 42.5 -3z" />
    <glyph glyph-name="Oacute.loclPLK" horiz-adv-x="731" 
d="M599.5 616q81.5 -91 81.5 -265t-81.5 -266t-234.5 -92t-234.5 92t-81.5 266t81.5 265t234.5 91t234.5 -91zM229.5 533.5q-46.5 -62.5 -46.5 -182.5q0 -121 46.5 -184t136.5 -63q89 0 135.5 63t46.5 184q0 120 -46.5 182.5t-135.5 62.5q-90 0 -136.5 -62.5zM473.5 907
q13.5 -3 13.5 -10q0 -6 -7 -18.5t-21 -33.5q-15 -21 -43 -67q-13 -22 -66 -22q-16 0 -22 3t-6 10q0 12 32 115q6 15 25.5 20.5t51.5 5.5q29 0 42.5 -3z" />
    <glyph glyph-name="Sacute.loclPLK" horiz-adv-x="500" 
d="M355 697.5q40 -9.5 65 -24.5t25 -32q0 -19 -16 -47t-30 -28q-4 0 -23 8.5t-41.5 15t-54.5 6.5q-54 0 -80 -21.5t-26 -55.5q0 -29 15 -48t37 -30t66 -28q58 -24 94.5 -45t63 -61.5t26.5 -103.5q0 -105 -64 -157.5t-160 -52.5q-65 0 -116.5 13.5t-80 33t-28.5 35.5
q0 12 9.5 30.5t22 32.5t20.5 14q6 0 24 -10q31 -17 61.5 -27.5t70.5 -10.5q46 0 77 21.5t31 65.5q0 27 -16 46t-39.5 31.5t-66.5 30.5q-25 10 -31 13q-46 20 -77 42.5t-51.5 60.5t-20.5 96q0 63 31.5 107.5t84 66.5t115.5 22q43 0 83 -9.5zM357.5 907q13.5 -3 13.5 -10
q0 -6 -7 -18.5t-21 -33.5q-15 -21 -43 -67q-13 -22 -66 -22q-16 0 -22 3t-6 10q0 12 32 115q6 15 25.5 20.5t51.5 5.5q29 0 42.5 -3z" />
    <glyph glyph-name="Zacute.loclPLK" horiz-adv-x="616" 
d="M565.5 670.5q11.5 -29.5 11.5 -48.5q0 -5 -2 -9l-362 -502h337q14 0 20 -10.5t6 -33.5v-23q0 -23 -6 -33.5t-20 -10.5h-485q-11 0 -22.5 28t-11.5 48q0 5 2 11l363 502h-308q-14 0 -20.5 10.5t-6.5 33.5v23q0 23 6.5 33.5t20.5 10.5h457q9 0 20.5 -29.5zM415.5 907
q13.5 -3 13.5 -10q0 -6 -7 -18.5t-21 -33.5q-15 -21 -43 -67q-13 -22 -66 -22q-16 0 -22 3t-6 10q0 12 32 115q6 15 25.5 20.5t51.5 5.5q29 0 42.5 -3z" />
    <glyph glyph-name="a" unicode="a" horiz-adv-x="545" 
d="M421.5 486.5q51.5 -43.5 51.5 -119.5v-201q0 -69 6 -100t6 -38q0 -14 -33 -21.5t-58 -7.5q-16 0 -23 14.5t-10.5 31.5t-4.5 23q-21 -27 -60 -51t-95 -24q-76 0 -116 39.5t-40 107.5q0 184 303 185v38q0 67 -89 67q-38 0 -66 -8.5t-48.5 -18t-23.5 -9.5q-13 0 -29.5 27
t-16.5 42q0 16 25.5 31.5t69.5 25.5t95 10q105 0 156.5 -43.5zM218 217.5q-47 -18.5 -47 -65.5q0 -27 16 -42.5t47 -15.5q35 0 64.5 18t49.5 47v78q-83 -1 -130 -19.5z" />
    <glyph glyph-name="aacute" unicode="&#xe1;" horiz-adv-x="545" 
d="M421.5 486.5q51.5 -43.5 51.5 -119.5v-201q0 -69 6 -100t6 -38q0 -14 -33 -21.5t-58 -7.5q-16 0 -23 14.5t-10.5 31.5t-4.5 23q-21 -27 -60 -51t-95 -24q-76 0 -116 39.5t-40 107.5q0 184 303 185v38q0 67 -89 67q-38 0 -66 -8.5t-48.5 -18t-23.5 -9.5q-13 0 -29.5 27
t-16.5 42q0 16 25.5 31.5t69.5 25.5t95 10q105 0 156.5 -43.5zM218 217.5q-47 -18.5 -47 -65.5q0 -27 16 -42.5t47 -15.5q35 0 64.5 18t49.5 47v78q-83 -1 -130 -19.5zM395.5 730q13.5 -3 13.5 -10q0 -6 -11.5 -20t-37.5 -42l-52 -57q-20 -22 -66 -22q-16 0 -22 3t-6 10
q0 4 6.5 16.5t13.5 25.5t11 19q34 60 31 54q16 26 77 26q29 0 42.5 -3z" />
    <glyph glyph-name="abreve" unicode="&#x103;" horiz-adv-x="545" 
d="M421.5 486.5q51.5 -43.5 51.5 -119.5v-201q0 -69 6 -100t6 -38q0 -14 -33 -21.5t-58 -7.5q-16 0 -23 14.5t-10.5 31.5t-4.5 23q-21 -27 -60 -51t-95 -24q-76 0 -116 39.5t-40 107.5q0 184 303 185v38q0 67 -89 67q-38 0 -66 -8.5t-48.5 -18t-23.5 -9.5q-13 0 -29.5 27
t-16.5 42q0 16 25.5 31.5t69.5 25.5t95 10q105 0 156.5 -43.5zM218 217.5q-47 -18.5 -47 -65.5q0 -27 16 -42.5t47 -15.5q35 0 64.5 18t49.5 47v78q-83 -1 -130 -19.5zM419 692q0 -48 -42.5 -80.5t-103.5 -32.5t-103.5 32.5t-42.5 80.5q0 23 28 23q10 0 15 -3.5t8.5 -9.5
t5.5 -8q23 -33 89 -33q65 0 91 35q2 2 6 8t9 8.5t12 2.5q28 0 28 -23z" />
    <glyph glyph-name="uni1EAF" unicode="&#x1eaf;" horiz-adv-x="545" 
d="M421.5 486.5q51.5 -43.5 51.5 -119.5v-201q0 -69 6 -100t6 -38q0 -14 -33 -21.5t-58 -7.5q-16 0 -23 14.5t-10.5 31.5t-4.5 23q-21 -27 -60 -51t-95 -24q-76 0 -116 39.5t-40 107.5q0 184 303 185v38q0 67 -89 67q-38 0 -66 -8.5t-48.5 -18t-23.5 -9.5q-13 0 -29.5 27
t-16.5 42q0 16 25.5 31.5t69.5 25.5t95 10q105 0 156.5 -43.5zM218 217.5q-47 -18.5 -47 -65.5q0 -27 16 -42.5t47 -15.5q35 0 64.5 18t49.5 47v78q-83 -1 -130 -19.5zM419 692q0 -48 -42.5 -80.5t-103.5 -32.5t-103.5 32.5t-42.5 80.5q0 23 28 23q10 0 15 -3.5t8.5 -9.5
t5.5 -8q23 -33 89 -33q65 0 91 35q2 2 6 8t9 8.5t12 2.5q28 0 28 -23zM395.5 888q13.5 -3 13.5 -10q0 -6 -11.5 -20t-37.5 -42l-52 -57q-20 -22 -66 -22q-16 0 -22 3t-6 10q0 4 6.5 16.5t13.5 25.5t11 19q34 60 31 54q16 26 77 26q29 0 42.5 -3z" />
    <glyph glyph-name="uni1EB7" unicode="&#x1eb7;" horiz-adv-x="545" 
d="M421.5 486.5q51.5 -43.5 51.5 -119.5v-201q0 -69 6 -100t6 -38q0 -14 -33 -21.5t-58 -7.5q-16 0 -23 14.5t-10.5 31.5t-4.5 23q-21 -27 -60 -51t-95 -24q-76 0 -116 39.5t-40 107.5q0 184 303 185v38q0 67 -89 67q-38 0 -66 -8.5t-48.5 -18t-23.5 -9.5q-13 0 -29.5 27
t-16.5 42q0 16 25.5 31.5t69.5 25.5t95 10q105 0 156.5 -43.5zM218 217.5q-47 -18.5 -47 -65.5q0 -27 16 -42.5t47 -15.5q35 0 64.5 18t49.5 47v78q-83 -1 -130 -19.5zM419 692q0 -48 -42.5 -80.5t-103.5 -32.5t-103.5 32.5t-42.5 80.5q0 23 28 23q10 0 15 -3.5t8.5 -9.5
t5.5 -8q23 -33 89 -33q65 0 91 35q2 2 6 8t9 8.5t12 2.5q28 0 28 -23zM325 -108v-57q0 -28 -54 -28q-28 0 -40.5 7t-12.5 21v57q0 28 54 28q53 0 53 -28z" />
    <glyph glyph-name="uni1EB1" unicode="&#x1eb1;" horiz-adv-x="545" 
d="M421.5 486.5q51.5 -43.5 51.5 -119.5v-201q0 -69 6 -100t6 -38q0 -14 -33 -21.5t-58 -7.5q-16 0 -23 14.5t-10.5 31.5t-4.5 23q-21 -27 -60 -51t-95 -24q-76 0 -116 39.5t-40 107.5q0 184 303 185v38q0 67 -89 67q-38 0 -66 -8.5t-48.5 -18t-23.5 -9.5q-13 0 -29.5 27
t-16.5 42q0 16 25.5 31.5t69.5 25.5t95 10q105 0 156.5 -43.5zM218 217.5q-47 -18.5 -47 -65.5q0 -27 16 -42.5t47 -15.5q35 0 64.5 18t49.5 47v78q-83 -1 -130 -19.5zM419 692q0 -48 -42.5 -80.5t-103.5 -32.5t-103.5 32.5t-42.5 80.5q0 23 28 23q10 0 15 -3.5t8.5 -9.5
t5.5 -8q23 -33 89 -33q65 0 91 35q2 2 6 8t9 8.5t12 2.5q28 0 28 -23zM277 865q24 -43 37 -64q12 -20 19 -33t7 -18q0 -7 -6 -10t-22 -3q-47 0 -67 22l-53 58q-25 28 -36 41.5t-11 19.5q0 7 13.5 10t42.5 3q62 0 76 -26z" />
    <glyph glyph-name="uni1EB3" unicode="&#x1eb3;" horiz-adv-x="545" 
d="M421.5 486.5q51.5 -43.5 51.5 -119.5v-201q0 -69 6 -100t6 -38q0 -14 -33 -21.5t-58 -7.5q-16 0 -23 14.5t-10.5 31.5t-4.5 23q-21 -27 -60 -51t-95 -24q-76 0 -116 39.5t-40 107.5q0 184 303 185v38q0 67 -89 67q-38 0 -66 -8.5t-48.5 -18t-23.5 -9.5q-13 0 -29.5 27
t-16.5 42q0 16 25.5 31.5t69.5 25.5t95 10q105 0 156.5 -43.5zM218 217.5q-47 -18.5 -47 -65.5q0 -27 16 -42.5t47 -15.5q35 0 64.5 18t49.5 47v78q-83 -1 -130 -19.5zM419 692q0 -48 -42.5 -80.5t-103.5 -32.5t-103.5 32.5t-42.5 80.5q0 23 28 23q10 0 15 -3.5t8.5 -9.5
t5.5 -8q23 -33 89 -33q65 0 91 35q2 2 6 8t9 8.5t12 2.5q28 0 28 -23zM299 844.5q-10 6.5 -24 6.5q-16 0 -28.5 -6t-14.5 -6q-6 0 -17 14.5t-11 24.5t26.5 20.5t52.5 10.5q46 0 75 -19.5t29 -56.5q0 -26 -19.5 -51t-43.5 -41t-34 -16q-13 0 -29.5 7.5t-16.5 13.5q0 7 6 13
t20 17q19 15 29 26t10 25q0 11 -10 17.5z" />
    <glyph glyph-name="uni1EB5" unicode="&#x1eb5;" horiz-adv-x="545" 
d="M278 858q18 -6 35.5 -11t28.5 -5q19 0 34 20q11 17 22 17q5 0 11 -3l9 -3q17 -6 17 -22q0 -5 -3 -13q-12 -32 -36 -50.5t-57 -18.5q-24 0 -78 18q-45 15 -62 16q-17 0 -33 -21q-11 -17 -22 -17q-5 0 -11 3l-10 3q-16 5 -16 21q0 8 3 14q12 33 35.5 51.5t57.5 18.5
q21 0 75 -18zM419 692q0 -48 -42.5 -80.5t-103.5 -32.5t-103.5 32.5t-42.5 80.5q0 23 28 23q10 0 15 -3.5t8.5 -9.5t5.5 -8q23 -33 89 -33q65 0 91 35q2 2 6 8t9 8.5t12 2.5q28 0 28 -23zM421.5 486.5q51.5 -43.5 51.5 -119.5v-201q0 -69 6 -100t6 -38q0 -14 -33 -21.5
t-58 -7.5q-16 0 -23 14.5t-10.5 31.5t-4.5 23q-21 -27 -60 -51t-95 -24q-76 0 -116 39.5t-40 107.5q0 184 303 185v38q0 67 -89 67q-38 0 -66 -8.5t-48.5 -18t-23.5 -9.5q-13 0 -29.5 27t-16.5 42q0 16 25.5 31.5t69.5 25.5t95 10q105 0 156.5 -43.5zM218 217.5
q-47 -18.5 -47 -65.5q0 -27 16 -42.5t47 -15.5q35 0 64.5 18t49.5 47v78q-83 -1 -130 -19.5z" />
    <glyph glyph-name="acircumflex" unicode="&#xe2;" horiz-adv-x="545" 
d="M421.5 486.5q51.5 -43.5 51.5 -119.5v-201q0 -69 6 -100t6 -38q0 -14 -33 -21.5t-58 -7.5q-16 0 -23 14.5t-10.5 31.5t-4.5 23q-21 -27 -60 -51t-95 -24q-76 0 -116 39.5t-40 107.5q0 184 303 185v38q0 67 -89 67q-38 0 -66 -8.5t-48.5 -18t-23.5 -9.5q-13 0 -29.5 27
t-16.5 42q0 16 25.5 31.5t69.5 25.5t95 10q105 0 156.5 -43.5zM218 217.5q-47 -18.5 -47 -65.5q0 -27 16 -42.5t47 -15.5q35 0 64.5 18t49.5 47v78q-83 -1 -130 -19.5zM315 714q13 -4 21 -16l62 -97q6 -9 6 -16q0 -12 -21 -12h-15q-40 0 -55 20l-41 53l-40 -52
q-9 -12 -22.5 -16.5t-32.5 -4.5h-15q-21 0 -21 12q0 7 6 16l62 97q7 12 20.5 16t34.5 4h16q22 0 35 -4z" />
    <glyph glyph-name="uni1EA5" unicode="&#x1ea5;" horiz-adv-x="545" 
d="M531.5 859q13.5 -3 13.5 -10q0 -6 -11.5 -20t-37.5 -42l-52 -57q-20 -22 -66 -22q-16 0 -22 3t-6 10q0 4 6.5 16.5t13.5 25.5t11 19q34 59 31 54q16 26 77 26q29 0 42.5 -3zM310.5 713.5q11.5 -4.5 17.5 -15.5l57 -97q6 -9 6 -16q0 -12 -21 -12h-15q-47 0 -55 20l-26 53
l-40 -52q-9 -12 -22.5 -16.5t-32.5 -4.5h-15q-21 0 -21 12q0 7 6 16l62 97q7 12 20.5 16t34.5 4h16q17 0 28.5 -4.5zM421.5 486.5q51.5 -43.5 51.5 -119.5v-201q0 -69 6 -100t6 -38q0 -14 -33 -21.5t-58 -7.5q-16 0 -23 14.5t-10.5 31.5t-4.5 23q-21 -27 -60 -51t-95 -24
q-76 0 -116 39.5t-40 107.5q0 184 303 185v38q0 67 -89 67q-38 0 -66 -8.5t-48.5 -18t-23.5 -9.5q-13 0 -29.5 27t-16.5 42q0 16 25.5 31.5t69.5 25.5t95 10q105 0 156.5 -43.5zM218 217.5q-47 -18.5 -47 -65.5q0 -27 16 -42.5t47 -15.5q35 0 64.5 18t49.5 47v78
q-83 -1 -130 -19.5z" />
    <glyph glyph-name="uni1EAD" unicode="&#x1ead;" horiz-adv-x="545" 
d="M421.5 486.5q51.5 -43.5 51.5 -119.5v-201q0 -69 6 -100t6 -38q0 -14 -33 -21.5t-58 -7.5q-16 0 -23 14.5t-10.5 31.5t-4.5 23q-21 -27 -60 -51t-95 -24q-76 0 -116 39.5t-40 107.5q0 184 303 185v38q0 67 -89 67q-38 0 -66 -8.5t-48.5 -18t-23.5 -9.5q-13 0 -29.5 27
t-16.5 42q0 16 25.5 31.5t69.5 25.5t95 10q105 0 156.5 -43.5zM218 217.5q-47 -18.5 -47 -65.5q0 -27 16 -42.5t47 -15.5q35 0 64.5 18t49.5 47v78q-83 -1 -130 -19.5zM316 714q13 -4 21 -16l62 -97q6 -9 6 -16q0 -12 -21 -12h-15q-40 0 -55 20l-41 53l-40 -52
q-9 -12 -22.5 -16.5t-32.5 -4.5h-15q-21 0 -21 12q0 7 6 16l62 97q7 12 20.5 16t34.5 4h16q22 0 35 -4zM325 -108v-57q0 -28 -54 -28q-28 0 -40.5 7t-12.5 21v57q0 28 54 28q53 0 53 -28z" />
    <glyph glyph-name="uni1EA7" unicode="&#x1ea7;" horiz-adv-x="545" 
d="M413 836q24 -43 37 -64q12 -20 19 -33t7 -18q0 -7 -6 -10t-22 -3q-47 0 -67 22l-53 58q-25 28 -36 41.5t-11 19.5q0 7 13.5 10t42.5 3q62 0 76 -26zM310.5 713.5q11.5 -4.5 17.5 -15.5l57 -97q6 -9 6 -16q0 -12 -21 -12h-15q-47 0 -55 20l-26 53l-40 -52
q-9 -12 -22.5 -16.5t-32.5 -4.5h-15q-21 0 -21 12q0 7 6 16l62 97q7 12 20.5 16t34.5 4h16q17 0 28.5 -4.5zM421.5 486.5q51.5 -43.5 51.5 -119.5v-201q0 -69 6 -100t6 -38q0 -14 -33 -21.5t-58 -7.5q-16 0 -23 14.5t-10.5 31.5t-4.5 23q-21 -27 -60 -51t-95 -24
q-76 0 -116 39.5t-40 107.5q0 184 303 185v38q0 67 -89 67q-38 0 -66 -8.5t-48.5 -18t-23.5 -9.5q-13 0 -29.5 27t-16.5 42q0 16 25.5 31.5t69.5 25.5t95 10q105 0 156.5 -43.5zM218 217.5q-47 -18.5 -47 -65.5q0 -27 16 -42.5t47 -15.5q35 0 64.5 18t49.5 47v78
q-83 -1 -130 -19.5z" />
    <glyph glyph-name="uni1EA9" unicode="&#x1ea9;" horiz-adv-x="545" 
d="M435 815.5q-10 6.5 -24 6.5q-16 0 -28.5 -6t-14.5 -6q-6 0 -17 14.5t-11 24.5t26.5 20.5t52.5 10.5q46 0 75 -19.5t29 -56.5q0 -26 -19.5 -51t-43.5 -41t-34 -16q-13 0 -29.5 7.5t-16.5 13.5q0 7 6 13t20 17q19 15 29 26t10 25q0 11 -10 17.5zM310.5 713.5
q11.5 -4.5 17.5 -15.5l57 -97q6 -9 6 -16q0 -12 -21 -12h-15q-47 0 -55 20l-26 53l-40 -52q-9 -12 -22.5 -16.5t-32.5 -4.5h-15q-21 0 -21 12q0 7 6 16l62 97q7 12 20.5 16t34.5 4h16q17 0 28.5 -4.5zM421.5 486.5q51.5 -43.5 51.5 -119.5v-201q0 -69 6 -100t6 -38
q0 -14 -33 -21.5t-58 -7.5q-16 0 -23 14.5t-10.5 31.5t-4.5 23q-21 -27 -60 -51t-95 -24q-76 0 -116 39.5t-40 107.5q0 184 303 185v38q0 67 -89 67q-38 0 -66 -8.5t-48.5 -18t-23.5 -9.5q-13 0 -29.5 27t-16.5 42q0 16 25.5 31.5t69.5 25.5t95 10q105 0 156.5 -43.5z
M218 217.5q-47 -18.5 -47 -65.5q0 -27 16 -42.5t47 -15.5q35 0 64.5 18t49.5 47v78q-83 -1 -130 -19.5z" />
    <glyph glyph-name="uni1EAB" unicode="&#x1eab;" horiz-adv-x="545" 
d="M282 856q18 -6 35.5 -11t28.5 -5q20 0 34 20q11 17 22 17q5 0 11 -3l9 -3q17 -6 17 -22q0 -5 -3 -13q-12 -32 -36 -51t-57 -19q-22 0 -76 18q-18 6 -35.5 11t-28.5 5q-18 0 -33 -21q-11 -16 -22 -16q-3 0 -11 2l-10 4q-16 5 -16 21q0 7 3 14q12 32 36 51t57 19
q21 0 75 -18zM315 714q13 -4 21 -16l62 -97q6 -9 6 -16q0 -12 -21 -12h-15q-40 0 -55 20l-41 53l-40 -52q-9 -12 -22.5 -16.5t-32.5 -4.5h-15q-21 0 -21 12q0 7 6 16l62 97q7 12 20.5 16t34.5 4h16q22 0 35 -4zM421.5 486.5q51.5 -43.5 51.5 -119.5v-201q0 -69 6 -100t6 -38
q0 -14 -33 -21.5t-58 -7.5q-16 0 -23 14.5t-10.5 31.5t-4.5 23q-21 -27 -60 -51t-95 -24q-76 0 -116 39.5t-40 107.5q0 184 303 185v38q0 67 -89 67q-38 0 -66 -8.5t-48.5 -18t-23.5 -9.5q-13 0 -29.5 27t-16.5 42q0 16 25.5 31.5t69.5 25.5t95 10q105 0 156.5 -43.5z
M218 217.5q-47 -18.5 -47 -65.5q0 -27 16 -42.5t47 -15.5q35 0 64.5 18t49.5 47v78q-83 -1 -130 -19.5z" />
    <glyph glyph-name="adieresis" unicode="&#xe4;" horiz-adv-x="545" 
d="M421.5 486.5q51.5 -43.5 51.5 -119.5v-201q0 -69 6 -100t6 -38q0 -14 -33 -21.5t-58 -7.5q-16 0 -23 14.5t-10.5 31.5t-4.5 23q-21 -27 -60 -51t-95 -24q-76 0 -116 39.5t-40 107.5q0 184 303 185v38q0 67 -89 67q-38 0 -66 -8.5t-48.5 -18t-23.5 -9.5q-13 0 -29.5 27
t-16.5 42q0 16 25.5 31.5t69.5 25.5t95 10q105 0 156.5 -43.5zM218 217.5q-47 -18.5 -47 -65.5q0 -27 16 -42.5t47 -15.5q35 0 64.5 18t49.5 47v78q-83 -1 -130 -19.5zM243 674v-57q0 -28 -54 -28q-28 0 -40.5 7t-12.5 21v57q0 28 54 28q53 0 53 -28zM410 674v-57
q0 -28 -54 -28q-28 0 -40.5 7t-12.5 21v57q0 28 54 28q53 0 53 -28z" />
    <glyph glyph-name="uni1EA1" unicode="&#x1ea1;" horiz-adv-x="545" 
d="M421.5 486.5q51.5 -43.5 51.5 -119.5v-201q0 -69 6 -100t6 -38q0 -14 -33 -21.5t-58 -7.5q-16 0 -23 14.5t-10.5 31.5t-4.5 23q-21 -27 -60 -51t-95 -24q-76 0 -116 39.5t-40 107.5q0 184 303 185v38q0 67 -89 67q-38 0 -66 -8.5t-48.5 -18t-23.5 -9.5q-13 0 -29.5 27
t-16.5 42q0 16 25.5 31.5t69.5 25.5t95 10q105 0 156.5 -43.5zM218 217.5q-47 -18.5 -47 -65.5q0 -27 16 -42.5t47 -15.5q35 0 64.5 18t49.5 47v78q-83 -1 -130 -19.5zM325 -108v-57q0 -28 -54 -28q-28 0 -40.5 7t-12.5 21v57q0 28 54 28q53 0 53 -28z" />
    <glyph glyph-name="agrave" unicode="&#xe0;" horiz-adv-x="545" 
d="M421.5 486.5q51.5 -43.5 51.5 -119.5v-201q0 -69 6 -100t6 -38q0 -14 -33 -21.5t-58 -7.5q-16 0 -23 14.5t-10.5 31.5t-4.5 23q-21 -27 -60 -51t-95 -24q-76 0 -116 39.5t-40 107.5q0 184 303 185v38q0 67 -89 67q-38 0 -66 -8.5t-48.5 -18t-23.5 -9.5q-13 0 -29.5 27
t-16.5 42q0 16 25.5 31.5t69.5 25.5t95 10q105 0 156.5 -43.5zM218 217.5q-47 -18.5 -47 -65.5q0 -27 16 -42.5t47 -15.5q35 0 64.5 18t49.5 47v78q-83 -1 -130 -19.5zM277 707q24 -43 37 -64q12 -20 19 -33t7 -18q0 -7 -6 -10t-22 -3q-47 0 -67 22l-53 58q-25 28 -36 41.5
t-11 19.5q0 7 13.5 10t42.5 3q62 0 76 -26z" />
    <glyph glyph-name="uni1EA3" unicode="&#x1ea3;" horiz-adv-x="545" 
d="M421.5 486.5q51.5 -43.5 51.5 -119.5v-201q0 -69 6 -100t6 -38q0 -14 -33 -21.5t-58 -7.5q-16 0 -23 14.5t-10.5 31.5t-4.5 23q-21 -27 -60 -51t-95 -24q-76 0 -116 39.5t-40 107.5q0 184 303 185v38q0 67 -89 67q-38 0 -66 -8.5t-48.5 -18t-23.5 -9.5q-13 0 -29.5 27
t-16.5 42q0 16 25.5 31.5t69.5 25.5t95 10q105 0 156.5 -43.5zM218 217.5q-47 -18.5 -47 -65.5q0 -27 16 -42.5t47 -15.5q35 0 64.5 18t49.5 47v78q-83 -1 -130 -19.5zM299 686.5q-10 6.5 -24 6.5q-16 0 -28.5 -6t-14.5 -6q-6 0 -17 14.5t-11 24.5t26.5 20.5t52.5 10.5
q46 0 75 -19.5t29 -56.5q0 -26 -19.5 -51t-43.5 -41t-34 -16q-13 0 -29.5 7.5t-16.5 13.5q0 7 6 13t20 17q19 15 29 26t10 25q0 11 -10 17.5z" />
    <glyph glyph-name="amacron" unicode="&#x101;" horiz-adv-x="545" 
d="M421.5 486.5q51.5 -43.5 51.5 -119.5v-201q0 -69 6 -100t6 -38q0 -14 -33 -21.5t-58 -7.5q-16 0 -23 14.5t-10.5 31.5t-4.5 23q-21 -27 -60 -51t-95 -24q-76 0 -116 39.5t-40 107.5q0 184 303 185v38q0 67 -89 67q-38 0 -66 -8.5t-48.5 -18t-23.5 -9.5q-13 0 -29.5 27
t-16.5 42q0 16 25.5 31.5t69.5 25.5t95 10q105 0 156.5 -43.5zM218 217.5q-47 -18.5 -47 -65.5q0 -27 16 -42.5t47 -15.5q35 0 64.5 18t49.5 47v78q-83 -1 -130 -19.5zM402.5 679.5q6.5 -8.5 6.5 -27.5v-13q0 -20 -6.5 -28.5t-20.5 -8.5h-218q-14 0 -20 9t-6 28v13
q0 19 6 27.5t20 8.5h218q14 0 20.5 -8.5z" />
    <glyph glyph-name="aogonek" unicode="&#x105;" horiz-adv-x="545" 
d="M601 -105q0 -30 -22.5 -41t-59.5 -11q-70 0 -94 33t-24 69q0 29 9 55q-6 -1 -16 -1q-16 0 -23 14.5t-10.5 31.5t-4.5 23q-21 -27 -60 -51t-95 -24q-76 0 -116 39.5t-40 107.5q0 184 303 185v38q0 67 -89 67q-38 0 -66 -8.5t-48.5 -18t-23.5 -9.5q-13 0 -29.5 27t-16.5 42
q0 16 25.5 31.5t69.5 25.5t95 10q105 0 156.5 -43.5t51.5 -119.5v-201q0 -69 6 -100t6 -38q0 -6 -6 -11q-1 -7 -6 -22t-5 -31q0 -32 18 -41.5t44 -9.5q15 0 28 5q14 4 22 4q21 0 21 -27zM348 237q-83 -1 -130 -19.5t-47 -65.5q0 -27 16 -42.5t47 -15.5q35 0 64.5 18t49.5 47
v78z" />
    <glyph glyph-name="aring" unicode="&#xe5;" horiz-adv-x="545" 
d="M421.5 486.5q51.5 -43.5 51.5 -119.5v-201q0 -69 6 -100t6 -38q0 -14 -33 -21.5t-58 -7.5q-16 0 -23 14.5t-10.5 31.5t-4.5 23q-21 -27 -60 -51t-95 -24q-76 0 -116 39.5t-40 107.5q0 184 303 185v38q0 67 -89 67q-38 0 -66 -8.5t-48.5 -18t-23.5 -9.5q-13 0 -29.5 27
t-16.5 42q0 16 25.5 31.5t69.5 25.5t95 10q105 0 156.5 -43.5zM218 217.5q-47 -18.5 -47 -65.5q0 -27 16 -42.5t47 -15.5q35 0 64.5 18t49.5 47v78q-83 -1 -130 -19.5zM339.5 715.5q27.5 -27.5 27.5 -66.5q0 -40 -27.5 -67t-66.5 -27q-40 0 -67 27t-27 67q0 39 27 66.5
t67 27.5q39 0 66.5 -27.5zM244 677.5q-12 -12.5 -12 -29.5t12 -29t29 -12t29 12t12 29t-12 29.5t-29 12.5t-29 -12.5z" />
    <glyph glyph-name="aringacute" unicode="&#x1fb;" horiz-adv-x="545" 
d="M421.5 486.5q51.5 -43.5 51.5 -119.5v-201q0 -69 6 -100t6 -38q0 -14 -33 -21.5t-58 -7.5q-16 0 -23 14.5t-10.5 31.5t-4.5 23q-21 -27 -60 -51t-95 -24q-76 0 -116 39.5t-40 107.5q0 184 303 185v38q0 67 -89 67q-38 0 -66 -8.5t-48.5 -18t-23.5 -9.5q-13 0 -29.5 27
t-16.5 42q0 16 25.5 31.5t69.5 25.5t95 10q105 0 156.5 -43.5zM218 217.5q-47 -18.5 -47 -65.5q0 -27 16 -42.5t47 -15.5q35 0 64.5 18t49.5 47v78q-83 -1 -130 -19.5zM339.5 715.5q27.5 -27.5 27.5 -66.5q0 -40 -27.5 -67t-66.5 -27q-40 0 -67 27t-27 67q0 39 27 66.5
t67 27.5q39 0 66.5 -27.5zM244 677.5q-12 -12.5 -12 -29.5t12 -29t29 -12t29 12t12 29t-12 29.5t-29 12.5t-29 -12.5zM417.5 920q13.5 -3 13.5 -10q0 -6 -11.5 -20t-37.5 -42l-52 -57q-20 -22 -66 -22q-16 0 -22 3t-6 10q0 4 6.5 16.5t13.5 25.5t11 19q34 60 31 54
q16 26 77 26q29 0 42.5 -3z" />
    <glyph glyph-name="atilde" unicode="&#xe3;" horiz-adv-x="545" 
d="M421.5 486.5q51.5 -43.5 51.5 -119.5v-201q0 -69 6 -100t6 -38q0 -14 -33 -21.5t-58 -7.5q-16 0 -23 14.5t-10.5 31.5t-4.5 23q-21 -27 -60 -51t-95 -24q-76 0 -116 39.5t-40 107.5q0 184 303 185v38q0 67 -89 67q-38 0 -66 -8.5t-48.5 -18t-23.5 -9.5q-13 0 -29.5 27
t-16.5 42q0 16 25.5 31.5t69.5 25.5t95 10q105 0 156.5 -43.5zM218 217.5q-47 -18.5 -47 -65.5q0 -27 16 -42.5t47 -15.5q35 0 64.5 18t49.5 47v78q-83 -1 -130 -19.5zM232.5 687q23.5 -6 46.5 -13q48 -15 68 -16q21 0 37 21q13 16 25 16q4 0 12 -2l10 -3q18 -6 18 -21
q0 -6 -3 -14q-12 -32 -38.5 -51t-63.5 -19q-25 0 -85 18q-19 6 -38 11t-31 5q-21 0 -37 -21q-12 -16 -24 -16q-4 0 -12 2l-11 4q-18 6 -18 22q0 7 3 13q13 32 39.5 51t63.5 19q15 0 38.5 -6z" />
    <glyph glyph-name="ae" unicode="&#xe6;" horiz-adv-x="829" 
d="M725 464q52 -66 52 -181q0 -12 -16.5 -32.5t-26.5 -20.5h-277q2 -71 36 -104t92 -33q54 0 110 28q16 7 20 7q13 0 29.5 -26t16.5 -40q0 -19 -29 -35t-71.5 -25t-79.5 -9q-127 0 -191 66q-27 -26 -74 -46t-106 -20q-78 0 -123 40t-45 107q0 176 287 179q6 48 20 79
q-23 32 -93 32q-33 0 -58.5 -7.5t-58.5 -20.5q-16 -8 -21 -8q-13 0 -29.5 27t-16.5 42q0 16 25.5 31.5t69.5 25.5t95 10q105 0 157 -40q58 40 146 40q108 0 160 -66zM456 319h198q0 54 -23.5 82.5t-66.5 28.5q-95 0 -108 -111zM210.5 211q-41.5 -18 -41.5 -59
q0 -27 16 -42.5t47 -15.5q33 0 62.5 13t48.5 36q-13 36 -16 87q-75 -1 -116.5 -19z" />
    <glyph glyph-name="aeacute" unicode="&#x1fd;" horiz-adv-x="829" 
d="M725 464q52 -66 52 -181q0 -12 -16.5 -32.5t-26.5 -20.5h-277q2 -71 36 -104t92 -33q54 0 110 28q16 7 20 7q13 0 29.5 -26t16.5 -40q0 -19 -29 -35t-71.5 -25t-79.5 -9q-127 0 -191 66q-27 -26 -74 -46t-106 -20q-78 0 -123 40t-45 107q0 176 287 179q6 48 20 79
q-23 32 -93 32q-33 0 -58.5 -7.5t-58.5 -20.5q-16 -8 -21 -8q-13 0 -29.5 27t-16.5 42q0 16 25.5 31.5t69.5 25.5t95 10q105 0 157 -40q58 40 146 40q108 0 160 -66zM456 319h198q0 54 -23.5 82.5t-66.5 28.5q-95 0 -108 -111zM210.5 211q-41.5 -18 -41.5 -59
q0 -27 16 -42.5t47 -15.5q33 0 62.5 13t48.5 36q-13 36 -16 87q-75 -1 -116.5 -19zM537.5 730q13.5 -3 13.5 -10q0 -6 -11.5 -20t-37.5 -42l-52 -57q-20 -22 -66 -22q-16 0 -22 3t-6 10q0 4 6.5 16.5t13.5 25.5t11 19q34 60 31 54q16 26 77 26q29 0 42.5 -3z" />
    <glyph glyph-name="b" unicode="b" horiz-adv-x="569" 
d="M198 725v-233q51 38 117 38q97 0 152.5 -71.5t55.5 -196.5q0 -82 -24 -143t-67 -93.5t-99 -32.5q-44 0 -81 20t-62 55q-5 -27 -12 -49q-4 -12 -15 -16.5t-32 -4.5h-9q-49 0 -49 28v699q0 28 53 28h19q53 0 53 -28zM198 400v-241q21 -29 46.5 -46t54.5 -17q48 0 72.5 43.5
t24.5 125.5q0 80 -27 121.5t-81 42.5q-51 0 -90 -29z" />
    <glyph glyph-name="c" unicode="c" horiz-adv-x="485" 
d="M406 513.5q50 -16.5 50 -43.5q0 -14 -17 -41.5t-28 -27.5q-2 0 -16 6q-46 23 -95 23q-63 0 -94 -40.5t-31 -126.5q0 -88 29 -129t96 -41q55 0 103 24q4 2 8.5 4t7.5 2q13 0 29 -26t16 -41q0 -20 -29 -34.5t-69 -21.5t-70 -7q-127 0 -188.5 65t-61.5 202q0 138 64.5 204
t185.5 66q60 0 110 -16.5z" />
    <glyph glyph-name="cacute" unicode="&#x107;" horiz-adv-x="485" 
d="M406 513.5q50 -16.5 50 -43.5q0 -14 -17 -41.5t-28 -27.5q-2 0 -16 6q-46 23 -95 23q-63 0 -94 -40.5t-31 -126.5q0 -88 29 -129t96 -41q55 0 103 24q4 2 8.5 4t7.5 2q13 0 29 -26t16 -41q0 -20 -29 -34.5t-69 -21.5t-70 -7q-127 0 -188.5 65t-61.5 202q0 138 64.5 204
t185.5 66q60 0 110 -16.5zM397.5 730q13.5 -3 13.5 -10q0 -6 -11.5 -20t-37.5 -42l-52 -57q-20 -22 -66 -22q-16 0 -22 3t-6 10q0 4 6.5 16.5t13.5 25.5t11 19q34 60 31 54q16 26 77 26q29 0 42.5 -3z" />
    <glyph glyph-name="ccaron" unicode="&#x10d;" horiz-adv-x="485" 
d="M406 513.5q50 -16.5 50 -43.5q0 -14 -17 -41.5t-28 -27.5q-2 0 -16 6q-46 23 -95 23q-63 0 -94 -40.5t-31 -126.5q0 -88 29 -129t96 -41q55 0 103 24q4 2 8.5 4t7.5 2q13 0 29 -26t16 -41q0 -20 -29 -34.5t-69 -21.5t-70 -7q-127 0 -188.5 65t-61.5 202q0 138 64.5 204
t185.5 66q60 0 110 -16.5zM407 708q0 -6 -6 -15l-62 -97q-8 -12 -21 -16t-35 -4h-16q-21 0 -34.5 4t-20.5 16l-62 97q-6 9 -6 16q0 11 21 11h15q39 0 55 -20l40 -52l41 52q14 20 55 20h15q21 0 21 -12z" />
    <glyph glyph-name="ccedilla" unicode="&#xe7;" horiz-adv-x="485" 
d="M417.5 14q-46.5 -16 -98.5 -20l-10 -34q32 -3 57 -20.5t25 -54.5q0 -96 -118 -96q-44 0 -84.5 13t-40.5 34q0 18 9 28t18 10q8 0 30 -8q35 -13 58 -13q36 0 36 24q0 11 -7.5 17t-23.5 12q-13 5 -19.5 9.5t-6.5 12.5t18 66q-108 9 -161 74t-53 192q0 138 64.5 204
t185.5 66q60 0 110 -16.5t50 -43.5q0 -14 -17 -41.5t-28 -27.5q-2 0 -16 6q-46 23 -95 23q-63 0 -94 -40.5t-31 -126.5q0 -88 29 -129t96 -41q55 0 103 24q4 2 8.5 4t7.5 2q13 0 29 -26t16 -41q0 -26 -46.5 -42z" />
    <glyph glyph-name="ccircumflex" unicode="&#x109;" horiz-adv-x="485" 
d="M406 513.5q50 -16.5 50 -43.5q0 -14 -17 -41.5t-28 -27.5q-2 0 -16 6q-46 23 -95 23q-63 0 -94 -40.5t-31 -126.5q0 -88 29 -129t96 -41q55 0 103 24q4 2 8.5 4t7.5 2q13 0 29 -26t16 -41q0 -20 -29 -34.5t-69 -21.5t-70 -7q-127 0 -188.5 65t-61.5 202q0 138 64.5 204
t185.5 66q60 0 110 -16.5zM318 714q13 -4 21 -16l62 -97q6 -9 6 -16q0 -12 -21 -12h-15q-40 0 -55 20l-41 53l-40 -52q-9 -12 -22.5 -16.5t-32.5 -4.5h-15q-21 0 -21 12q0 7 6 16l62 97q7 12 20.5 16t34.5 4h16q22 0 35 -4z" />
    <glyph glyph-name="cdotaccent" unicode="&#x10b;" horiz-adv-x="485" 
d="M406 513.5q50 -16.5 50 -43.5q0 -14 -17 -41.5t-28 -27.5q-2 0 -16 6q-46 23 -95 23q-63 0 -94 -40.5t-31 -126.5q0 -88 29 -129t96 -41q55 0 103 24q4 2 8.5 4t7.5 2q13 0 29 -26t16 -41q0 -20 -29 -34.5t-69 -21.5t-70 -7q-127 0 -188.5 65t-61.5 202q0 138 64.5 204
t185.5 66q60 0 110 -16.5zM330 674v-57q0 -28 -54 -28q-28 0 -40.5 7t-12.5 21v57q0 28 54 28q53 0 53 -28z" />
    <glyph glyph-name="d" unicode="d" horiz-adv-x="565" 
d="M496 725v-559q0 -69 6 -100t6 -38q0 -14 -33 -21.5t-58 -7.5q-16 0 -23 14.5t-10.5 31.5t-4.5 23q-25 -35 -62 -55t-81 -20q-56 0 -99 32.5t-67 93.5t-24 143q0 125 55.5 196.5t152.5 71.5q64 0 117 -38v233q0 28 53 28h19q53 0 53 -28zM173 265q0 -82 24.5 -125.5
t71.5 -43.5q55 0 102 63v241q-41 29 -90 29q-108 -1 -108 -164z" />
    <glyph glyph-name="eth" unicode="&#xf0;" horiz-adv-x="569" 
d="M346 703q12 -10 37 -42l72 9q12 0 22 -13t10 -25t-18 -15l-52 -7q46 -71 76 -163t30 -186q0 -131 -60.5 -199.5t-176.5 -68.5q-117 0 -178 69t-61 199q0 131 61.5 200t177.5 69q35 0 62 -7q-16 35 -38 73q-64 -10 -70 -10q-13 0 -23.5 12t-10.5 26q0 12 19 15l53 8
l-14 19q-19 25 -19 31q0 9 18 12l49 6q17 0 34 -12zM200 388.5q-27 -41.5 -27 -126.5t27 -127t84 -42t84 42t27 127t-27 126.5t-84 41.5t-84 -41.5z" />
    <glyph glyph-name="dcaron" unicode="&#x10f;" horiz-adv-x="565" 
d="M496 725v-559q0 -69 6 -100t6 -38q0 -14 -33 -21.5t-58 -7.5q-16 0 -23 14.5t-10.5 31.5t-4.5 23q-25 -35 -62 -55t-81 -20q-56 0 -99 32.5t-67 93.5t-24 143q0 125 55.5 196.5t152.5 71.5q64 0 117 -38v233q0 28 53 28h19q53 0 53 -28zM173 265q0 -82 24.5 -125.5
t71.5 -43.5q55 0 102 63v241q-41 29 -90 29q-108 -1 -108 -164zM653 689.5q12 -10.5 12 -27.5q0 -35 -14.5 -68.5t-34.5 -55t-34 -22.5q-14 0 -26.5 5t-12.5 15q0 19 1 32.5t2 23.5q4 42 4 68q0 19 13 29.5t40 10.5h15q23 0 35 -10.5z" />
    <glyph glyph-name="dcroat" unicode="&#x111;" horiz-adv-x="565" 
d="M541.5 665.5q6.5 -8.5 6.5 -27.5v-13q0 -20 -6.5 -28.5t-20.5 -8.5h-25v-422q0 -69 6 -100t6 -38q0 -14 -33 -21.5t-58 -7.5q-16 0 -23 14.5t-10.5 31.5t-4.5 23q-25 -35 -62 -55t-81 -20q-56 0 -99 32.5t-67 93.5t-24 143q0 125 55.5 196.5t152.5 71.5q64 0 117 -38v96
h-68q-14 0 -20 9t-6 28v13q0 19 6 27.5t20 8.5h68v51q0 28 53 28h19q53 0 53 -28v-51h25q14 0 20.5 -8.5zM371 400q-41 29 -90 29q-108 -1 -108 -164q0 -82 24.5 -125.5t71.5 -43.5q55 0 102 63v241z" />
    <glyph glyph-name="uni1E0D" unicode="&#x1e0d;" horiz-adv-x="565" 
d="M496 725v-559q0 -69 6 -100t6 -38q0 -14 -33 -21.5t-58 -7.5q-16 0 -23 14.5t-10.5 31.5t-4.5 23q-25 -35 -62 -55t-81 -20q-56 0 -99 32.5t-67 93.5t-24 143q0 125 55.5 196.5t152.5 71.5q64 0 117 -38v233q0 28 53 28h19q53 0 53 -28zM173 265q0 -82 24.5 -125.5
t71.5 -43.5q55 0 102 63v241q-41 29 -90 29q-108 -1 -108 -164zM343 -108v-57q0 -28 -54 -28q-28 0 -40.5 7t-12.5 21v57q0 28 54 28q53 0 53 -28z" />
    <glyph glyph-name="uni01F3" unicode="&#x1f3;" horiz-adv-x="1054" 
d="M496 725v-559q0 -69 6 -100t6 -38q0 -14 -33 -21.5t-58 -7.5q-16 0 -23 14.5t-10.5 31.5t-4.5 23q-25 -35 -62 -55t-81 -20q-56 0 -99 32.5t-67 93.5t-24 143q0 125 55.5 196.5t152.5 71.5q64 0 117 -38v233q0 28 53 28h19q53 0 53 -28zM173 265q0 -82 24.5 -125.5
t71.5 -43.5q55 0 102 63v241q-41 29 -90 29q-108 -1 -108 -164zM1009 498.5q9 -24.5 9 -43.5q0 -7 -2 -13l-251 -341h230q14 0 20 -10.5t6 -32.5v-15q0 -22 -6 -32.5t-20 -10.5h-373q-8 0 -17 24t-9 43q0 9 3 13l252 342h-211q-14 0 -20.5 10t-6.5 33v15q0 23 6.5 33
t20.5 10h353q7 0 16 -24.5z" />
    <glyph glyph-name="uni01C6" unicode="&#x1c6;" horiz-adv-x="1054" 
d="M496 725v-559q0 -69 6 -100t6 -38q0 -14 -33 -21.5t-58 -7.5q-16 0 -23 14.5t-10.5 31.5t-4.5 23q-25 -35 -62 -55t-81 -20q-56 0 -99 32.5t-67 93.5t-24 143q0 125 55.5 196.5t152.5 71.5q64 0 117 -38v233q0 28 53 28h19q53 0 53 -28zM173 265q0 -82 24.5 -125.5
t71.5 -43.5q55 0 102 63v241q-41 29 -90 29q-108 -1 -108 -164zM1009 498.5q9 -24.5 9 -43.5q0 -7 -2 -13l-251 -341h230q14 0 20 -10.5t6 -32.5v-15q0 -22 -6 -32.5t-20 -10.5h-373q-8 0 -17 24t-9 43q0 9 3 13l252 342h-211q-14 0 -20.5 10t-6.5 33v15q0 23 6.5 33
t20.5 10h353q7 0 16 -24.5zM942 708q0 -6 -6 -15l-62 -97q-8 -12 -21 -16t-35 -4h-16q-21 0 -34.5 4t-20.5 16l-62 97q-6 9 -6 16q0 11 21 11h15q39 0 55 -20l40 -52l41 52q14 20 55 20h15q21 0 21 -12z" />
    <glyph glyph-name="e" unicode="e" horiz-adv-x="539" 
d="M446.5 460q52.5 -70 52.5 -189q0 -11 -17.5 -31.5t-27.5 -20.5h-277q5 -67 37 -96.5t92 -29.5q33 0 58.5 8t52.5 20q16 7 19 7q13 0 29.5 -26t16.5 -40q0 -19 -28.5 -35t-71 -25t-80.5 -9q-129 0 -192 68t-63 197q0 138 62.5 205t176.5 67q108 0 160.5 -70zM177 308h198
q0 58 -22.5 90t-67.5 32q-94 0 -108 -122z" />
    <glyph glyph-name="eacute" unicode="&#xe9;" horiz-adv-x="539" 
d="M446.5 460q52.5 -70 52.5 -189q0 -11 -17.5 -31.5t-27.5 -20.5h-277q5 -67 37 -96.5t92 -29.5q33 0 58.5 8t52.5 20q16 7 19 7q13 0 29.5 -26t16.5 -40q0 -19 -28.5 -35t-71 -25t-80.5 -9q-129 0 -192 68t-63 197q0 138 62.5 205t176.5 67q108 0 160.5 -70zM177 308h198
q0 58 -22.5 90t-67.5 32q-94 0 -108 -122zM392.5 730q13.5 -3 13.5 -10q0 -6 -11.5 -20t-37.5 -42l-52 -57q-20 -22 -66 -22q-16 0 -22 3t-6 10q0 4 6.5 16.5t13.5 25.5t11 19q34 60 31 54q16 26 77 26q29 0 42.5 -3z" />
    <glyph glyph-name="ebreve" unicode="&#x115;" horiz-adv-x="539" 
d="M446.5 460q52.5 -70 52.5 -189q0 -11 -17.5 -31.5t-27.5 -20.5h-277q5 -67 37 -96.5t92 -29.5q33 0 58.5 8t52.5 20q16 7 19 7q13 0 29.5 -26t16.5 -40q0 -19 -28.5 -35t-71 -25t-80.5 -9q-129 0 -192 68t-63 197q0 138 62.5 205t176.5 67q108 0 160.5 -70zM177 308h198
q0 58 -22.5 90t-67.5 32q-94 0 -108 -122zM416 692q0 -48 -42.5 -80.5t-103.5 -32.5t-103.5 32.5t-42.5 80.5q0 23 28 23q10 0 15 -3.5t8.5 -9.5t5.5 -8q23 -33 89 -33q65 0 91 35q2 2 6 8t9 8.5t12 2.5q28 0 28 -23z" />
    <glyph glyph-name="ecaron" unicode="&#x11b;" horiz-adv-x="539" 
d="M446.5 460q52.5 -70 52.5 -189q0 -11 -17.5 -31.5t-27.5 -20.5h-277q5 -67 37 -96.5t92 -29.5q33 0 58.5 8t52.5 20q16 7 19 7q13 0 29.5 -26t16.5 -40q0 -19 -28.5 -35t-71 -25t-80.5 -9q-129 0 -192 68t-63 197q0 138 62.5 205t176.5 67q108 0 160.5 -70zM177 308h198
q0 58 -22.5 90t-67.5 32q-94 0 -108 -122zM402 708q0 -6 -6 -15l-62 -97q-8 -12 -21 -16t-35 -4h-16q-21 0 -34.5 4t-20.5 16l-62 97q-6 9 -6 16q0 11 21 11h15q39 0 55 -20l40 -52l41 52q14 20 55 20h15q21 0 21 -12z" />
    <glyph glyph-name="ecircumflex" unicode="&#xea;" horiz-adv-x="539" 
d="M446.5 460q52.5 -70 52.5 -189q0 -11 -17.5 -31.5t-27.5 -20.5h-277q5 -67 37 -96.5t92 -29.5q33 0 58.5 8t52.5 20q16 7 19 7q13 0 29.5 -26t16.5 -40q0 -19 -28.5 -35t-71 -25t-80.5 -9q-129 0 -192 68t-63 197q0 138 62.5 205t176.5 67q108 0 160.5 -70zM177 308h198
q0 58 -22.5 90t-67.5 32q-94 0 -108 -122zM312 714q13 -4 21 -16l62 -97q6 -9 6 -16q0 -12 -21 -12h-15q-40 0 -55 20l-41 53l-40 -52q-9 -12 -22.5 -16.5t-32.5 -4.5h-15q-21 0 -21 12q0 7 6 16l62 97q7 12 20.5 16t34.5 4h16q22 0 35 -4z" />
    <glyph glyph-name="uni1EBF" unicode="&#x1ebf;" horiz-adv-x="539" 
d="M528.5 859q13.5 -3 13.5 -10q0 -6 -11.5 -20t-37.5 -42l-52 -57q-20 -22 -66 -22q-16 0 -22 3t-6 10q0 4 6.5 16.5t13.5 25.5t11 19q34 59 31 54q16 26 77 26q29 0 42.5 -3zM307.5 713.5q11.5 -4.5 17.5 -15.5l57 -97q6 -9 6 -16q0 -12 -21 -12h-15q-47 0 -55 20l-26 53
l-40 -52q-9 -12 -22.5 -16.5t-32.5 -4.5h-15q-21 0 -21 12q0 7 6 16l62 97q7 12 20.5 16t34.5 4h16q17 0 28.5 -4.5zM446.5 460q52.5 -70 52.5 -189q0 -11 -17.5 -31.5t-27.5 -20.5h-277q5 -67 37 -96.5t92 -29.5q33 0 58.5 8t52.5 20q16 7 19 7q13 0 29.5 -26t16.5 -40
q0 -19 -28.5 -35t-71 -25t-80.5 -9q-129 0 -192 68t-63 197q0 138 62.5 205t176.5 67q108 0 160.5 -70zM177 308h198q0 58 -22.5 90t-67.5 32q-94 0 -108 -122z" />
    <glyph glyph-name="uni1EC7" unicode="&#x1ec7;" horiz-adv-x="539" 
d="M446.5 460q52.5 -70 52.5 -189q0 -11 -17.5 -31.5t-27.5 -20.5h-277q5 -67 37 -96.5t92 -29.5q33 0 58.5 8t52.5 20q16 7 19 7q13 0 29.5 -26t16.5 -40q0 -19 -28.5 -35t-71 -25t-80.5 -9q-129 0 -192 68t-63 197q0 138 62.5 205t176.5 67q108 0 160.5 -70zM177 308h198
q0 58 -22.5 90t-67.5 32q-94 0 -108 -122zM313 714q13 -4 21 -16l62 -97q6 -9 6 -16q0 -12 -21 -12h-15q-40 0 -55 20l-41 53l-40 -52q-9 -12 -22.5 -16.5t-32.5 -4.5h-15q-21 0 -21 12q0 7 6 16l62 97q7 12 20.5 16t34.5 4h16q22 0 35 -4zM326 -108v-57q0 -28 -54 -28
q-28 0 -40.5 7t-12.5 21v57q0 28 54 28q53 0 53 -28z" />
    <glyph glyph-name="uni1EC1" unicode="&#x1ec1;" horiz-adv-x="539" 
d="M410 836q24 -43 37 -64q12 -20 19 -33t7 -18q0 -7 -6 -10t-22 -3q-47 0 -67 22l-53 58q-25 28 -36 41.5t-11 19.5q0 7 13.5 10t42.5 3q62 0 76 -26zM307.5 713.5q11.5 -4.5 17.5 -15.5l57 -97q6 -9 6 -16q0 -12 -21 -12h-15q-47 0 -55 20l-26 53l-40 -52
q-9 -12 -22.5 -16.5t-32.5 -4.5h-15q-21 0 -21 12q0 7 6 16l62 97q7 12 20.5 16t34.5 4h16q17 0 28.5 -4.5zM446.5 460q52.5 -70 52.5 -189q0 -11 -17.5 -31.5t-27.5 -20.5h-277q5 -67 37 -96.5t92 -29.5q33 0 58.5 8t52.5 20q16 7 19 7q13 0 29.5 -26t16.5 -40
q0 -19 -28.5 -35t-71 -25t-80.5 -9q-129 0 -192 68t-63 197q0 138 62.5 205t176.5 67q108 0 160.5 -70zM177 308h198q0 58 -22.5 90t-67.5 32q-94 0 -108 -122z" />
    <glyph glyph-name="uni1EC3" unicode="&#x1ec3;" horiz-adv-x="539" 
d="M432 815.5q-10 6.5 -24 6.5q-16 0 -28.5 -6t-14.5 -6q-6 0 -17 14.5t-11 24.5t26.5 20.5t52.5 10.5q46 0 75 -19.5t29 -56.5q0 -26 -19.5 -51t-43.5 -41t-34 -16q-13 0 -29.5 7.5t-16.5 13.5q0 7 6 13t20 17q19 15 29 26t10 25q0 11 -10 17.5zM307.5 713.5
q11.5 -4.5 17.5 -15.5l57 -97q6 -9 6 -16q0 -12 -21 -12h-15q-47 0 -55 20l-26 53l-40 -52q-9 -12 -22.5 -16.5t-32.5 -4.5h-15q-21 0 -21 12q0 7 6 16l62 97q7 12 20.5 16t34.5 4h16q17 0 28.5 -4.5zM446.5 460q52.5 -70 52.5 -189q0 -11 -17.5 -31.5t-27.5 -20.5h-277
q5 -67 37 -96.5t92 -29.5q33 0 58.5 8t52.5 20q16 7 19 7q13 0 29.5 -26t16.5 -40q0 -19 -28.5 -35t-71 -25t-80.5 -9q-129 0 -192 68t-63 197q0 138 62.5 205t176.5 67q108 0 160.5 -70zM177 308h198q0 58 -22.5 90t-67.5 32q-94 0 -108 -122z" />
    <glyph glyph-name="uni1EC5" unicode="&#x1ec5;" horiz-adv-x="539" 
d="M279 856q18 -6 35.5 -11t28.5 -5q20 0 34 20q11 17 22 17q5 0 11 -3l9 -3q17 -6 17 -22q0 -5 -3 -13q-12 -32 -36 -51t-57 -19q-22 0 -76 18q-18 6 -35.5 11t-28.5 5q-18 0 -33 -21q-11 -16 -22 -16q-3 0 -11 2l-10 4q-16 5 -16 21q0 7 3 14q12 32 36 51t57 19
q21 0 75 -18zM312 714q13 -4 21 -16l62 -97q6 -9 6 -16q0 -12 -21 -12h-15q-40 0 -55 20l-41 53l-40 -52q-9 -12 -22.5 -16.5t-32.5 -4.5h-15q-21 0 -21 12q0 7 6 16l62 97q7 12 20.5 16t34.5 4h16q22 0 35 -4zM446.5 460q52.5 -70 52.5 -189q0 -11 -17.5 -31.5t-27.5 -20.5
h-277q5 -67 37 -96.5t92 -29.5q33 0 58.5 8t52.5 20q16 7 19 7q13 0 29.5 -26t16.5 -40q0 -19 -28.5 -35t-71 -25t-80.5 -9q-129 0 -192 68t-63 197q0 138 62.5 205t176.5 67q108 0 160.5 -70zM177 308h198q0 58 -22.5 90t-67.5 32q-94 0 -108 -122z" />
    <glyph glyph-name="edieresis" unicode="&#xeb;" horiz-adv-x="539" 
d="M446.5 460q52.5 -70 52.5 -189q0 -11 -17.5 -31.5t-27.5 -20.5h-277q5 -67 37 -96.5t92 -29.5q33 0 58.5 8t52.5 20q16 7 19 7q13 0 29.5 -26t16.5 -40q0 -19 -28.5 -35t-71 -25t-80.5 -9q-129 0 -192 68t-63 197q0 138 62.5 205t176.5 67q108 0 160.5 -70zM177 308h198
q0 58 -22.5 90t-67.5 32q-94 0 -108 -122zM240 674v-57q0 -28 -54 -28q-28 0 -40.5 7t-12.5 21v57q0 28 54 28q53 0 53 -28zM407 674v-57q0 -28 -54 -28q-28 0 -40.5 7t-12.5 21v57q0 28 54 28q53 0 53 -28z" />
    <glyph glyph-name="edotaccent" unicode="&#x117;" horiz-adv-x="539" 
d="M446.5 460q52.5 -70 52.5 -189q0 -11 -17.5 -31.5t-27.5 -20.5h-277q5 -67 37 -96.5t92 -29.5q33 0 58.5 8t52.5 20q16 7 19 7q13 0 29.5 -26t16.5 -40q0 -19 -28.5 -35t-71 -25t-80.5 -9q-129 0 -192 68t-63 197q0 138 62.5 205t176.5 67q108 0 160.5 -70zM177 308h198
q0 58 -22.5 90t-67.5 32q-94 0 -108 -122zM324 674v-57q0 -28 -54 -28q-28 0 -40.5 7t-12.5 21v57q0 28 54 28q53 0 53 -28z" />
    <glyph glyph-name="uni1EB9" unicode="&#x1eb9;" horiz-adv-x="539" 
d="M446.5 460q52.5 -70 52.5 -189q0 -11 -17.5 -31.5t-27.5 -20.5h-277q5 -67 37 -96.5t92 -29.5q33 0 58.5 8t52.5 20q16 7 19 7q13 0 29.5 -26t16.5 -40q0 -19 -28.5 -35t-71 -25t-80.5 -9q-129 0 -192 68t-63 197q0 138 62.5 205t176.5 67q108 0 160.5 -70zM177 308h198
q0 58 -22.5 90t-67.5 32q-94 0 -108 -122zM326 -108v-57q0 -28 -54 -28q-28 0 -40.5 7t-12.5 21v57q0 28 54 28q53 0 53 -28z" />
    <glyph glyph-name="egrave" unicode="&#xe8;" horiz-adv-x="539" 
d="M446.5 460q52.5 -70 52.5 -189q0 -11 -17.5 -31.5t-27.5 -20.5h-277q5 -67 37 -96.5t92 -29.5q33 0 58.5 8t52.5 20q16 7 19 7q13 0 29.5 -26t16.5 -40q0 -19 -28.5 -35t-71 -25t-80.5 -9q-129 0 -192 68t-63 197q0 138 62.5 205t176.5 67q108 0 160.5 -70zM177 308h198
q0 58 -22.5 90t-67.5 32q-94 0 -108 -122zM274 707q24 -43 37 -64q12 -20 19 -33t7 -18q0 -7 -6 -10t-22 -3q-47 0 -67 22l-53 58q-25 28 -36 41.5t-11 19.5q0 7 13.5 10t42.5 3q62 0 76 -26z" />
    <glyph glyph-name="uni1EBB" unicode="&#x1ebb;" horiz-adv-x="539" 
d="M446.5 460q52.5 -70 52.5 -189q0 -11 -17.5 -31.5t-27.5 -20.5h-277q5 -67 37 -96.5t92 -29.5q33 0 58.5 8t52.5 20q16 7 19 7q13 0 29.5 -26t16.5 -40q0 -19 -28.5 -35t-71 -25t-80.5 -9q-129 0 -192 68t-63 197q0 138 62.5 205t176.5 67q108 0 160.5 -70zM177 308h198
q0 58 -22.5 90t-67.5 32q-94 0 -108 -122zM296 686.5q-10 6.5 -24 6.5q-16 0 -28.5 -6t-14.5 -6q-6 0 -17 14.5t-11 24.5t26.5 20.5t52.5 10.5q46 0 75 -19.5t29 -56.5q0 -26 -19.5 -51t-43.5 -41t-34 -16q-13 0 -29.5 7.5t-16.5 13.5q0 7 6 13t20 17q19 15 29 26t10 25
q0 11 -10 17.5z" />
    <glyph glyph-name="emacron" unicode="&#x113;" horiz-adv-x="539" 
d="M446.5 460q52.5 -70 52.5 -189q0 -11 -17.5 -31.5t-27.5 -20.5h-277q5 -67 37 -96.5t92 -29.5q33 0 58.5 8t52.5 20q16 7 19 7q13 0 29.5 -26t16.5 -40q0 -19 -28.5 -35t-71 -25t-80.5 -9q-129 0 -192 68t-63 197q0 138 62.5 205t176.5 67q108 0 160.5 -70zM177 308h198
q0 58 -22.5 90t-67.5 32q-94 0 -108 -122zM399.5 679.5q6.5 -8.5 6.5 -27.5v-13q0 -20 -6.5 -28.5t-20.5 -8.5h-218q-14 0 -20 9t-6 28v13q0 19 6 27.5t20 8.5h218q14 0 20.5 -8.5z" />
    <glyph glyph-name="eogonek" unicode="&#x119;" horiz-adv-x="539" 
d="M557 -118q0 -30 -22.5 -41t-59.5 -11q-70 0 -94 33t-24 69q0 41 15 68q-34 -7 -70 -7q-129 0 -192 68t-63 197q0 138 62.5 205t176.5 67q108 0 160.5 -70t52.5 -189q0 -11 -17.5 -31.5t-27.5 -20.5h-277q5 -67 37 -96.5t92 -29.5q33 0 58.5 8t52.5 20q16 7 19 7
q13 0 29.5 -26t16.5 -40q0 -24 -48 -45q1 -2 1 -8q0 -4 -4 -20q-7 -23 -7 -38q0 -32 18 -41.5t44 -9.5q15 0 28 5q14 4 22 4q21 0 21 -27zM177 308h198q0 58 -22.5 90t-67.5 32q-94 0 -108 -122z" />
    <glyph glyph-name="uni1EBD" unicode="&#x1ebd;" horiz-adv-x="539" 
d="M446.5 460q52.5 -70 52.5 -189q0 -11 -17.5 -31.5t-27.5 -20.5h-277q5 -67 37 -96.5t92 -29.5q33 0 58.5 8t52.5 20q16 7 19 7q13 0 29.5 -26t16.5 -40q0 -19 -28.5 -35t-71 -25t-80.5 -9q-129 0 -192 68t-63 197q0 138 62.5 205t176.5 67q108 0 160.5 -70zM177 308h198
q0 58 -22.5 90t-67.5 32q-94 0 -108 -122zM229.5 687q23.5 -6 46.5 -13q48 -15 68 -16q21 0 37 21q13 16 25 16q4 0 12 -2l10 -3q18 -6 18 -21q0 -6 -3 -14q-12 -32 -38.5 -51t-63.5 -19q-25 0 -85 18q-19 6 -38 11t-31 5q-21 0 -37 -21q-12 -16 -24 -16q-4 0 -12 2l-11 4
q-18 6 -18 22q0 7 3 13q13 32 39.5 51t63.5 19q15 0 38.5 -6z" />
    <glyph glyph-name="f" unicode="f" horiz-adv-x="325" 
d="M319 716q0 -12 -7.5 -37t-19.5 -25q-5 0 -15 2t-20 2q-22 0 -32.5 -11.5t-10.5 -42.5v-81h64q14 0 20 -10.5t6 -32.5v-15q0 -22 -6 -32.5t-20 -10.5h-64v-396q0 -28 -53 -28h-19q-53 0 -53 28v396h-26q-14 0 -20 10.5t-6 32.5v15q0 22 6 32.5t20 10.5h26v82
q0 81 38 117.5t102 36.5q90 0 90 -43z" />
    <glyph glyph-name="g" unicode="g" horiz-adv-x="546" 
d="M337 523h168q14 0 20.5 -10t6.5 -33v-15q0 -41 -23 -41q-27 0 -53 4l-1 -3q9 -12 14 -30.5t5 -36.5q0 -83 -54.5 -128t-146.5 -45q-37 0 -55 -10t-18 -32q0 -24 27 -33.5t84 -16.5l41 -6q71 -12 112.5 -41t41.5 -95q0 -75 -66.5 -119t-180.5 -44q-227 0 -227 133
q0 41 24 71.5t67 47.5l1 3q-42 25 -42 78q0 57 59 91q-40 21 -61.5 58t-21.5 88q0 84 56.5 128t151.5 44q40 0 71 -7zM200 418.5q-25 -19.5 -25 -61.5q0 -41 25 -60t66 -19t66 19t25 60q0 42 -25 61.5t-66 19.5t-66 -19.5zM166.5 -20.5q-15.5 -16.5 -15.5 -37.5
q0 -28 31.5 -41.5t87.5 -13.5q115 0 115 58q0 26 -30 36.5t-99 18.5l-47 6q-27 -10 -42.5 -26.5z" />
    <glyph glyph-name="gbreve" unicode="&#x11f;" horiz-adv-x="546" 
d="M337 523h168q14 0 20.5 -10t6.5 -33v-15q0 -41 -23 -41q-27 0 -53 4l-1 -3q9 -12 14 -30.5t5 -36.5q0 -83 -54.5 -128t-146.5 -45q-37 0 -55 -10t-18 -32q0 -24 27 -33.5t84 -16.5l41 -6q71 -12 112.5 -41t41.5 -95q0 -75 -66.5 -119t-180.5 -44q-227 0 -227 133
q0 41 24 71.5t67 47.5l1 3q-42 25 -42 78q0 57 59 91q-40 21 -61.5 58t-21.5 88q0 84 56.5 128t151.5 44q40 0 71 -7zM200 418.5q-25 -19.5 -25 -61.5q0 -41 25 -60t66 -19t66 19t25 60q0 42 -25 61.5t-66 19.5t-66 -19.5zM166.5 -20.5q-15.5 -16.5 -15.5 -37.5
q0 -28 31.5 -41.5t87.5 -13.5q115 0 115 58q0 26 -30 36.5t-99 18.5l-47 6q-27 -10 -42.5 -26.5zM419 692q0 -48 -42.5 -80.5t-103.5 -32.5t-103.5 32.5t-42.5 80.5q0 23 28 23q10 0 15 -3.5t8.5 -9.5t5.5 -8q23 -33 89 -33q65 0 91 35q2 2 6 8t9 8.5t12 2.5q28 0 28 -23z
" />
    <glyph glyph-name="gcircumflex" unicode="&#x11d;" horiz-adv-x="546" 
d="M337 523h168q14 0 20.5 -10t6.5 -33v-15q0 -41 -23 -41q-27 0 -53 4l-1 -3q9 -12 14 -30.5t5 -36.5q0 -83 -54.5 -128t-146.5 -45q-37 0 -55 -10t-18 -32q0 -24 27 -33.5t84 -16.5l41 -6q71 -12 112.5 -41t41.5 -95q0 -75 -66.5 -119t-180.5 -44q-227 0 -227 133
q0 41 24 71.5t67 47.5l1 3q-42 25 -42 78q0 57 59 91q-40 21 -61.5 58t-21.5 88q0 84 56.5 128t151.5 44q40 0 71 -7zM200 418.5q-25 -19.5 -25 -61.5q0 -41 25 -60t66 -19t66 19t25 60q0 42 -25 61.5t-66 19.5t-66 -19.5zM166.5 -20.5q-15.5 -16.5 -15.5 -37.5
q0 -28 31.5 -41.5t87.5 -13.5q115 0 115 58q0 26 -30 36.5t-99 18.5l-47 6q-27 -10 -42.5 -26.5zM315 714q13 -4 21 -16l62 -97q6 -9 6 -16q0 -12 -21 -12h-15q-40 0 -55 20l-41 53l-40 -52q-9 -12 -22.5 -16.5t-32.5 -4.5h-15q-21 0 -21 12q0 7 6 16l62 97q7 12 20.5 16
t34.5 4h16q22 0 35 -4z" />
    <glyph glyph-name="gcommaaccent" unicode="&#x123;" horiz-adv-x="546" 
d="M337 523h168q14 0 20.5 -10t6.5 -33v-15q0 -41 -23 -41q-27 0 -53 4l-1 -3q9 -12 14 -30.5t5 -36.5q0 -83 -54.5 -128t-146.5 -45q-37 0 -55 -10t-18 -32q0 -24 27 -33.5t84 -16.5l41 -6q71 -12 112.5 -41t41.5 -95q0 -75 -66.5 -119t-180.5 -44q-227 0 -227 133
q0 41 24 71.5t67 47.5l1 3q-42 25 -42 78q0 57 59 91q-40 21 -61.5 58t-21.5 88q0 84 56.5 128t151.5 44q40 0 71 -7zM200 418.5q-25 -19.5 -25 -61.5q0 -41 25 -60t66 -19t66 19t25 60q0 42 -25 61.5t-66 19.5t-66 -19.5zM166.5 -20.5q-15.5 -16.5 -15.5 -37.5
q0 -28 31.5 -41.5t87.5 -13.5q115 0 115 58q0 26 -30 36.5t-99 18.5l-47 6q-27 -10 -42.5 -26.5zM230 589.5q-12 10.5 -12 27.5q0 36 18.5 70.5t44 56.5t43.5 22q14 0 26.5 -5t12.5 -14q0 -6 -3.5 -14t-4.5 -11q-11 -25 -17 -47t-6 -56q0 -19 -13 -29.5t-40 -10.5h-15
q-22 0 -34 10.5z" />
    <glyph glyph-name="gdotaccent" unicode="&#x121;" horiz-adv-x="546" 
d="M337 523h168q14 0 20.5 -10t6.5 -33v-15q0 -41 -23 -41q-27 0 -53 4l-1 -3q9 -12 14 -30.5t5 -36.5q0 -83 -54.5 -128t-146.5 -45q-37 0 -55 -10t-18 -32q0 -24 27 -33.5t84 -16.5l41 -6q71 -12 112.5 -41t41.5 -95q0 -75 -66.5 -119t-180.5 -44q-227 0 -227 133
q0 41 24 71.5t67 47.5l1 3q-42 25 -42 78q0 57 59 91q-40 21 -61.5 58t-21.5 88q0 84 56.5 128t151.5 44q40 0 71 -7zM200 418.5q-25 -19.5 -25 -61.5q0 -41 25 -60t66 -19t66 19t25 60q0 42 -25 61.5t-66 19.5t-66 -19.5zM166.5 -20.5q-15.5 -16.5 -15.5 -37.5
q0 -28 31.5 -41.5t87.5 -13.5q115 0 115 58q0 26 -30 36.5t-99 18.5l-47 6q-27 -10 -42.5 -26.5zM327 674v-57q0 -28 -54 -28q-28 0 -40.5 7t-12.5 21v57q0 28 54 28q53 0 53 -28z" />
    <glyph glyph-name="h" unicode="h" horiz-adv-x="565" 
d="M200 725v-263q26 30 64 49t81 19q71 0 112.5 -38.5t41.5 -123.5v-342q0 -28 -53 -28h-19q-53 0 -53 28v325q0 36 -19.5 55.5t-58.5 19.5q-34 0 -60.5 -22t-35.5 -40v-338q0 -28 -53 -28h-19q-53 0 -53 28v699q0 28 53 28h19q53 0 53 -28z" />
    <glyph glyph-name="hbar" unicode="&#x127;" horiz-adv-x="565" 
d="M457.5 491.5q41.5 -38.5 41.5 -123.5v-342q0 -28 -53 -28h-19q-53 0 -53 28v325q0 36 -19.5 55.5t-58.5 19.5q-34 0 -60.5 -22t-35.5 -40v-338q0 -28 -53 -28h-19q-53 0 -53 28v562h-21q-14 0 -20 9t-6 28v13q0 19 6 27.5t20 8.5h21v51q0 28 53 28h19q53 0 53 -28v-51h72
q14 0 20.5 -8.5t6.5 -27.5v-13q0 -20 -6.5 -28.5t-20.5 -8.5h-72v-126q26 30 64 49t81 19q71 0 112.5 -38.5z" />
    <glyph glyph-name="hcircumflex" unicode="&#x125;" horiz-adv-x="565" 
d="M200 725v-263q26 30 64 49t81 19q71 0 112.5 -38.5t41.5 -123.5v-342q0 -28 -53 -28h-19q-53 0 -53 28v325q0 36 -19.5 55.5t-58.5 19.5q-34 0 -60.5 -22t-35.5 -40v-338q0 -28 -53 -28h-19q-53 0 -53 28v699q0 28 53 28h19q53 0 53 -28zM181 922q13 -4 21 -16l62 -97
q6 -9 6 -16q0 -12 -21 -12h-15q-40 0 -55 20l-41 53l-40 -52q-9 -12 -22.5 -16.5t-32.5 -4.5h-15q-21 0 -21 12q0 7 6 16l62 97q7 12 20.5 16t34.5 4h16q22 0 35 -4z" />
    <glyph glyph-name="uni1E25" unicode="&#x1e25;" horiz-adv-x="565" 
d="M200 725v-263q26 30 64 49t81 19q71 0 112.5 -38.5t41.5 -123.5v-342q0 -28 -53 -28h-19q-53 0 -53 28v325q0 36 -19.5 55.5t-58.5 19.5q-34 0 -60.5 -22t-35.5 -40v-338q0 -28 -53 -28h-19q-53 0 -53 28v699q0 28 53 28h19q53 0 53 -28zM337 -108v-57q0 -28 -54 -28
q-28 0 -40.5 7t-12.5 21v57q0 28 54 28q53 0 53 -28z" />
    <glyph glyph-name="i" unicode="i" horiz-adv-x="265" 
d="M197 725v-73q0 -14 -12.5 -21t-40.5 -7h-22q-28 0 -40.5 7t-12.5 21v73q0 28 53 28h22q53 0 53 -28zM196 497v-471q0 -28 -53 -28h-19q-53 0 -53 28v471q0 28 53 28h19q53 0 53 -28z" />
    <glyph glyph-name="dotlessi" unicode="&#x131;" horiz-adv-x="265" 
d="M196 497v-471q0 -28 -53 -28h-19q-53 0 -53 28v471q0 28 53 28h19q53 0 53 -28z" />
    <glyph glyph-name="iacute" unicode="&#xed;" horiz-adv-x="265" 
d="M196 497v-471q0 -28 -53 -28h-19q-53 0 -53 28v471q0 28 53 28h19q53 0 53 -28zM255.5 730q13.5 -3 13.5 -10q0 -6 -11.5 -20t-37.5 -42l-52 -57q-20 -22 -66 -22q-16 0 -22 3t-6 10q0 4 6.5 16.5t13.5 25.5t11 19q34 60 31 54q16 26 77 26q29 0 42.5 -3z" />
    <glyph glyph-name="ibreve" unicode="&#x12d;" horiz-adv-x="265" 
d="M196 497v-471q0 -28 -53 -28h-19q-53 0 -53 28v471q0 28 53 28h19q53 0 53 -28zM279 692q0 -48 -42.5 -80.5t-103.5 -32.5t-103.5 32.5t-42.5 80.5q0 23 28 23q10 0 15 -3.5t8.5 -9.5t5.5 -8q23 -33 89 -33q65 0 91 35q2 2 6 8t9 8.5t12 2.5q28 0 28 -23z" />
    <glyph glyph-name="icircumflex" unicode="&#xee;" horiz-adv-x="265" 
d="M196 497v-471q0 -28 -53 -28h-19q-53 0 -53 28v471q0 28 53 28h19q53 0 53 -28zM175 714q13 -4 21 -16l62 -97q6 -9 6 -16q0 -12 -21 -12h-15q-40 0 -55 20l-41 53l-40 -52q-9 -12 -22.5 -16.5t-32.5 -4.5h-15q-21 0 -21 12q0 7 6 16l62 97q7 12 20.5 16t34.5 4h16
q22 0 35 -4z" />
    <glyph glyph-name="idieresis" unicode="&#xef;" horiz-adv-x="265" 
d="M196 497v-471q0 -28 -53 -28h-19q-53 0 -53 28v471q0 28 53 28h19q53 0 53 -28zM103 674v-57q0 -28 -54 -28q-28 0 -40.5 7t-12.5 21v57q0 28 54 28q53 0 53 -28zM270 674v-57q0 -28 -54 -28q-28 0 -40.5 7t-12.5 21v57q0 28 54 28q53 0 53 -28z" />
    <glyph glyph-name="i.loclTRK" horiz-adv-x="265" 
d="M196 497v-471q0 -28 -53 -28h-19q-53 0 -53 28v471q0 28 53 28h19q53 0 53 -28zM187 674v-57q0 -28 -54 -28q-28 0 -40.5 7t-12.5 21v57q0 28 54 28q53 0 53 -28z" />
    <glyph glyph-name="uni1ECB" unicode="&#x1ecb;" horiz-adv-x="265" 
d="M197 725v-73q0 -14 -12.5 -21t-40.5 -7h-22q-28 0 -40.5 7t-12.5 21v73q0 28 53 28h22q53 0 53 -28zM196 497v-471q0 -28 -53 -28h-19q-53 0 -53 28v471q0 28 53 28h19q53 0 53 -28zM187 -108v-57q0 -28 -54 -28q-28 0 -40.5 7t-12.5 21v57q0 28 54 28q53 0 53 -28z" />
    <glyph glyph-name="igrave" unicode="&#xec;" horiz-adv-x="265" 
d="M196 497v-471q0 -28 -53 -28h-19q-53 0 -53 28v471q0 28 53 28h19q53 0 53 -28zM137 707q24 -43 37 -64q12 -20 19 -33t7 -18q0 -7 -6 -10t-22 -3q-47 0 -67 22l-53 58q-25 28 -36 41.5t-11 19.5q0 7 13.5 10t42.5 3q62 0 76 -26z" />
    <glyph glyph-name="uni1EC9" unicode="&#x1ec9;" horiz-adv-x="265" 
d="M196 497v-471q0 -28 -53 -28h-19q-53 0 -53 28v471q0 28 53 28h19q53 0 53 -28zM159 686.5q-10 6.5 -24 6.5q-16 0 -28.5 -6t-14.5 -6q-6 0 -17 14.5t-11 24.5t26.5 20.5t52.5 10.5q46 0 75 -19.5t29 -56.5q0 -26 -19.5 -51t-43.5 -41t-34 -16q-13 0 -29.5 7.5
t-16.5 13.5q0 7 6 13t20 17q19 15 29 26t10 25q0 11 -10 17.5z" />
    <glyph glyph-name="ij" unicode="&#x133;" horiz-adv-x="541" 
d="M197 725v-73q0 -14 -12.5 -21t-40.5 -7h-22q-28 0 -40.5 7t-12.5 21v73q0 28 53 28h22q53 0 53 -28zM196 497v-471q0 -28 -53 -28h-19q-53 0 -53 28v471q0 28 53 28h19q53 0 53 -28zM473 725v-73q0 -14 -12.5 -21t-40.5 -7h-22q-28 0 -40.5 7t-12.5 21v73q0 28 53 28h22
q53 0 53 -28zM471 497v-556q0 -78 -40 -115.5t-99 -37.5q-48 0 -70.5 9.5t-22.5 34.5q0 17 9 39t21 22q5 0 15 -2t20 -2q21 0 32 12.5t11 41.5v554q0 28 52 28h20q52 0 52 -28z" />
    <glyph glyph-name="imacron" unicode="&#x12b;" horiz-adv-x="265" 
d="M196 497v-471q0 -28 -53 -28h-19q-53 0 -53 28v471q0 28 53 28h19q53 0 53 -28zM261.5 679.5q6.5 -8.5 6.5 -27.5v-13q0 -20 -6.5 -28.5t-20.5 -8.5h-218q-14 0 -20 9t-6 28v13q0 19 6 27.5t20 8.5h218q14 0 20.5 -8.5z" />
    <glyph glyph-name="iogonek" unicode="&#x12f;" horiz-adv-x="265" 
d="M81.5 631q-12.5 7 -12.5 21v73q0 28 53 28h22q53 0 53 -28v-73q0 -14 -12.5 -21t-40.5 -7h-22q-28 0 -40.5 7zM287 -131q0 -30 -22.5 -41t-59.5 -11q-70 0 -94 33t-24 69q0 20 5 42.5t18 37.5q-39 3 -39 27v471q0 28 53 28h19q53 0 53 -28v-471q0 -21 -31 -27v-3
q0 -4 -4 -20q-7 -23 -7 -38q0 -32 18 -41.5t44 -9.5q15 0 28 5q14 4 22 4q21 0 21 -27z" />
    <glyph glyph-name="itilde" unicode="&#x129;" horiz-adv-x="265" 
d="M196 497v-471q0 -28 -53 -28h-19q-53 0 -53 28v471q0 28 53 28h19q53 0 53 -28zM99.4463 687q21.1484 -6 41.8477 -13q43.1982 -15 61.1982 -16q18.8984 0 33.2979 21q11.7002 16 22.499 16q3.60059 0 10.7998 -2l9 -3q16.1992 -6 16.1992 -21q0 -6 -2.7002 -14
q-10.7988 -32 -34.6484 -51q-23.8486 -19 -57.1475 -19q-22.499 0 -76.4971 18q-17.0996 6 -34.1982 11q-17.0996 5 -27.8994 5q-18.8994 0 -33.2988 -21q-10.7988 -16 -21.5986 -16q-3.59961 0 -10.7998 2l-9.89941 4q-16.1992 6 -16.1992 22q0 7 2.7002 13
q11.6992 32 35.5479 51q23.8496 19 57.1475 19q13.5 0 34.6494 -6z" />
    <glyph glyph-name="j" unicode="j" horiz-adv-x="276" 
d="M208 725v-73q0 -14 -12.5 -21t-40.5 -7h-22q-28 0 -40.5 7t-12.5 21v73q0 28 53 28h22q53 0 53 -28zM206 497v-556q0 -78 -40 -115.5t-99 -37.5q-48 0 -70.5 9.5t-22.5 34.5q0 17 9 39t21 22q5 0 15 -2t20 -2q21 0 32 12.5t11 41.5v554q0 28 52 28h20q52 0 52 -28z" />
    <glyph glyph-name="uni0237" unicode="&#x237;" horiz-adv-x="276" 
d="M206 497v-556q0 -78 -40 -115.5t-99 -37.5q-48 0 -70.5 9.5t-22.5 34.5q0 17 9 39t21 22q5 0 15 -2t20 -2q21 0 32 12.5t11 41.5v554q0 28 52 28h20q52 0 52 -28z" />
    <glyph glyph-name="jcircumflex" unicode="&#x135;" horiz-adv-x="276" 
d="M206 497v-556q0 -78 -40 -115.5t-99 -37.5q-48 0 -70.5 9.5t-22.5 34.5q0 17 9 39t21 22q5 0 15 -2t20 -2q21 0 32 12.5t11 41.5v554q0 28 52 28h20q52 0 52 -28zM186 714q13 -4 21 -16l62 -97q6 -9 6 -16q0 -12 -21 -12h-15q-40 0 -55 20l-41 53l-40 -52
q-9 -12 -22.5 -16.5t-32.5 -4.5h-15q-21 0 -21 12q0 7 6 16l62 97q7 12 20.5 16t34.5 4h16q22 0 35 -4z" />
    <glyph glyph-name="k" unicode="k" horiz-adv-x="521" 
d="M201 725v-415h4l146 198q8 10 21.5 13.5t36.5 3.5h25q24 0 36.5 -4t12.5 -10q0 -9 -10 -20l-156 -206l179 -253q8 -12 8 -19q0 -15 -52 -15h-28q-23 0 -37.5 3.5t-20.5 13.5l-161 232h-4v-221q0 -28 -53 -28h-19q-53 0 -53 28v699q0 28 53 28h19q53 0 53 -28z" />
    <glyph glyph-name="kcommaaccent" unicode="&#x137;" horiz-adv-x="521" 
d="M201 725v-415h4l146 198q8 10 21.5 13.5t36.5 3.5h25q24 0 36.5 -4t12.5 -10q0 -9 -10 -20l-156 -206l179 -253q8 -12 8 -19q0 -15 -52 -15h-28q-23 0 -37.5 3.5t-20.5 13.5l-161 232h-4v-221q0 -28 -53 -28h-19q-53 0 -53 28v699q0 28 53 28h19q53 0 53 -28zM304 -61.5
q12 -10.5 12 -27.5q0 -36 -18.5 -70.5t-44 -56.5t-43.5 -22q-14 0 -26.5 5t-12.5 14q0 6 3.5 14t4.5 11q11 25 17 47t6 56q0 19 13 29.5t40 10.5h15q22 0 34 -10.5z" />
    <glyph glyph-name="kgreenlandic" unicode="&#x138;" horiz-adv-x="521" 
d="M201 497v-187h4l146 198q8 10 21.5 13.5t36.5 3.5h25q24 0 36.5 -4t12.5 -10q0 -9 -10 -20l-156 -206l179 -253q8 -12 8 -19q0 -15 -52 -15h-28q-23 0 -37.5 3.5t-20.5 13.5l-161 232h-4v-221q0 -28 -53 -28h-19q-53 0 -53 28v471q0 28 53 28h19q53 0 53 -28z" />
    <glyph glyph-name="l" unicode="l" horiz-adv-x="297" 
d="M195 725v-577q0 -30 10.5 -42.5t31.5 -12.5q10 0 19.5 2.5t13.5 2.5q12 0 19.5 -25.5t7.5 -37.5q0 -42 -87 -42q-64 0 -102 36.5t-38 116.5v579q0 28 53 28h19q53 0 53 -28z" />
    <glyph glyph-name="lacute" unicode="&#x13a;" horiz-adv-x="297" 
d="M195 725v-577q0 -30 10.5 -42.5t31.5 -12.5q10 0 19.5 2.5t13.5 2.5q12 0 19.5 -25.5t7.5 -37.5q0 -42 -87 -42q-64 0 -102 36.5t-38 116.5v579q0 28 53 28h19q53 0 53 -28zM254.5 927q13.5 -3 13.5 -10q0 -6 -11.5 -20t-37.5 -42l-52 -57q-20 -22 -66 -22q-16 0 -22 3
t-6 10q0 4 6.5 16.5t13.5 25.5t11 19q34 60 31 54q16 26 77 26q29 0 42.5 -3z" />
    <glyph glyph-name="lcaron" unicode="&#x13e;" horiz-adv-x="297" 
d="M195 725v-577q0 -30 10.5 -42.5t31.5 -12.5q10 0 19.5 2.5t13.5 2.5q12 0 19.5 -25.5t7.5 -37.5q0 -42 -87 -42q-64 0 -102 36.5t-38 116.5v579q0 28 53 28h19q53 0 53 -28zM345 723.5q12 -10.5 12 -27.5q0 -35 -14.5 -68.5t-34.5 -55t-34 -22.5q-14 0 -26.5 5t-12.5 15
q0 19 1 32.5t2 23.5q4 42 4 68q0 19 13 29.5t40 10.5h15q23 0 35 -10.5z" />
    <glyph glyph-name="lcommaaccent" unicode="&#x13c;" horiz-adv-x="297" 
d="M195 725v-577q0 -30 10.5 -42.5t31.5 -12.5q10 0 19.5 2.5t13.5 2.5q12 0 19.5 -25.5t7.5 -37.5q0 -42 -87 -42q-64 0 -102 36.5t-38 116.5v579q0 28 53 28h19q53 0 53 -28zM225 -61.5q12 -10.5 12 -27.5q0 -36 -18.5 -70.5t-44 -56.5t-43.5 -22q-14 0 -26.5 5t-12.5 14
q0 6 3.5 14t4.5 11q11 25 17 47t6 56q0 19 13 29.5t40 10.5h15q22 0 34 -10.5z" />
    <glyph glyph-name="ldot" unicode="&#x140;" horiz-adv-x="297" 
d="M195 725v-577q0 -30 10.5 -42.5t31.5 -12.5q10 0 19.5 2.5t13.5 2.5q12 0 19.5 -25.5t7.5 -37.5q0 -42 -87 -42q-64 0 -102 36.5t-38 116.5v579q0 28 53 28h19q53 0 53 -28zM342 404.5q19 -18.5 19 -45.5q0 -26 -19 -44.5t-45 -18.5t-44.5 18.5t-18.5 44.5
q0 27 18.5 45.5t44.5 18.5t45 -18.5z" />
    <glyph glyph-name="uni01C9" unicode="&#x1c9;" horiz-adv-x="573" 
d="M195 725v-577q0 -30 10.5 -42.5t31.5 -12.5q10 0 19.5 2.5t13.5 2.5q12 0 19.5 -25.5t7.5 -37.5q0 -42 -87 -42q-64 0 -102 36.5t-38 116.5v579q0 28 53 28h19q53 0 53 -28zM505 725v-73q0 -14 -12.5 -21t-40.5 -7h-22q-28 0 -40.5 7t-12.5 21v73q0 28 53 28h22
q53 0 53 -28zM503 497v-556q0 -78 -40 -115.5t-99 -37.5q-48 0 -70.5 9.5t-22.5 34.5q0 17 9 39t21 22q5 0 15 -2t20 -2q21 0 32 12.5t11 41.5v554q0 28 52 28h20q52 0 52 -28z" />
    <glyph glyph-name="lslash" unicode="&#x142;" horiz-adv-x="293" 
d="M191 725v-249l31 19q10 4 13 4q10 0 10 -18v-14q0 -15 -5.5 -23.5t-17.5 -16.5l-31 -19v-260q0 -30 11 -42.5t32 -12.5q10 0 19 2.5t14 2.5q12 0 19.5 -25.5t7.5 -37.5q0 -42 -87 -42q-64 0 -102 36.5t-38 116.5v188l-30 -17q-7 -6 -13 -6q-10 0 -10 18v15q0 26 23 40
l30 17v324q0 28 52 28h20q52 0 52 -28z" />
    <glyph glyph-name="m" unicode="m" horiz-adv-x="848" 
d="M778 368v-342q0 -28 -52 -28h-20q-52 0 -52 28v325q0 75 -73 75q-53 0 -94 -61v-339q0 -28 -53 -28h-19q-53 0 -53 28v325q0 75 -73 75q-34 0 -59.5 -22t-34.5 -40v-338q0 -28 -53 -28h-19q-53 0 -53 28v330q0 67 -6 97.5t-6 37.5q0 14 33 21.5t58 7.5q16 0 23 -14
t10.5 -29.5t4.5 -21.5q26 32 65.5 53.5t84.5 21.5q105 0 136 -78q26 33 67.5 55.5t87.5 22.5q150 0 150 -162z" />
    <glyph glyph-name="n" unicode="n" 
d="M492 368v-342q0 -28 -52 -28h-20q-52 0 -52 28v325q0 36 -19 55.5t-57 19.5q-29 0 -54.5 -18t-41.5 -44v-338q0 -28 -53 -28h-19q-53 0 -53 28v330q0 67 -6 97.5t-6 37.5q0 14 33 21.5t58 7.5q16 0 23 -14t10.5 -29.5t4.5 -21.5q27 33 67.5 54t84.5 21q152 0 152 -162z
" />
    <glyph glyph-name="nacute" unicode="&#x144;" 
d="M492 368v-342q0 -28 -52 -28h-20q-52 0 -52 28v325q0 36 -19 55.5t-57 19.5q-29 0 -54.5 -18t-41.5 -44v-338q0 -28 -53 -28h-19q-53 0 -53 28v330q0 67 -6 97.5t-6 37.5q0 14 33 21.5t58 7.5q16 0 23 -14t10.5 -29.5t4.5 -21.5q27 33 67.5 54t84.5 21q152 0 152 -162z
M401.5 730q13.5 -3 13.5 -10q0 -6 -11.5 -20t-37.5 -42l-52 -57q-20 -22 -66 -22q-16 0 -22 3t-6 10q0 4 6.5 16.5t13.5 25.5t11 19q34 60 31 54q16 26 77 26q29 0 42.5 -3z" />
    <glyph glyph-name="napostrophe" unicode="&#x149;" 
d="M104 710.5q12 -10.5 12 -27.5q0 -36 -18.5 -70.5t-44 -56.5t-43.5 -22q-14 0 -26.5 5t-12.5 14q0 6 3.5 14t4.5 11q11 25 17 47t6 56q0 19 13 29.5t40 10.5h15q22 0 34 -10.5zM492 368v-342q0 -28 -52 -28h-20q-52 0 -52 28v325q0 36 -19 55.5t-57 19.5q-29 0 -54.5 -18
t-41.5 -44v-338q0 -28 -53 -28h-19q-53 0 -53 28v330q0 67 -6 97.5t-6 37.5q0 14 33 21.5t58 7.5q16 0 23 -14t10.5 -29.5t4.5 -21.5q27 33 67.5 54t84.5 21q152 0 152 -162z" />
    <glyph glyph-name="ncaron" unicode="&#x148;" 
d="M492 368v-342q0 -28 -52 -28h-20q-52 0 -52 28v325q0 36 -19 55.5t-57 19.5q-29 0 -54.5 -18t-41.5 -44v-338q0 -28 -53 -28h-19q-53 0 -53 28v330q0 67 -6 97.5t-6 37.5q0 14 33 21.5t58 7.5q16 0 23 -14t10.5 -29.5t4.5 -21.5q27 33 67.5 54t84.5 21q152 0 152 -162z
M411 708q0 -6 -6 -15l-62 -97q-8 -12 -21 -16t-35 -4h-16q-21 0 -34.5 4t-20.5 16l-62 97q-6 9 -6 16q0 11 21 11h15q39 0 55 -20l40 -52l41 52q14 20 55 20h15q21 0 21 -12z" />
    <glyph glyph-name="ncommaaccent" unicode="&#x146;" 
d="M492 368v-342q0 -28 -52 -28h-20q-52 0 -52 28v325q0 36 -19 55.5t-57 19.5q-29 0 -54.5 -18t-41.5 -44v-338q0 -28 -53 -28h-19q-53 0 -53 28v330q0 67 -6 97.5t-6 37.5q0 14 33 21.5t58 7.5q16 0 23 -14t10.5 -29.5t4.5 -21.5q27 33 67.5 54t84.5 21q152 0 152 -162z
M322 -61.5q12 -10.5 12 -27.5q0 -36 -18.5 -70.5t-44 -56.5t-43.5 -22q-14 0 -26.5 5t-12.5 14q0 6 3.5 14t4.5 11q11 25 17 47t6 56q0 19 13 29.5t40 10.5h15q22 0 34 -10.5z" />
    <glyph glyph-name="uni1E45" unicode="&#x1e45;" 
d="M492 368v-342q0 -28 -52 -28h-20q-52 0 -52 28v325q0 36 -19 55.5t-57 19.5q-29 0 -54.5 -18t-41.5 -44v-338q0 -28 -53 -28h-19q-53 0 -53 28v330q0 67 -6 97.5t-6 37.5q0 14 33 21.5t58 7.5q16 0 23 -14t10.5 -29.5t4.5 -21.5q27 33 67.5 54t84.5 21q152 0 152 -162z
M333 674v-57q0 -28 -54 -28q-28 0 -40.5 7t-12.5 21v57q0 28 54 28q53 0 53 -28z" />
    <glyph glyph-name="eng" unicode="&#x14b;" 
d="M65 453.5q-6 30.5 -6 37.5q0 14 33 21.5t58 7.5q16 0 23 -14t10.5 -29.5t4.5 -21.5q27 33 67.5 54t84.5 21q152 0 152 -162v-427q0 -78 -40 -115.5t-99 -37.5q-48 0 -70.5 9.5t-22.5 34.5q0 17 9 39t21 22q5 0 15 -2t20 -2q21 0 32 12.5t11 41.5v408q0 36 -19 55.5
t-57 19.5q-29 0 -54.5 -18t-41.5 -44v-338q0 -28 -53 -28h-19q-53 0 -53 28v330q0 67 -6 97.5z" />
    <glyph glyph-name="uni01CC" unicode="&#x1cc;" horiz-adv-x="833" 
d="M492 368v-342q0 -28 -52 -28h-20q-52 0 -52 28v325q0 36 -19 55.5t-57 19.5q-29 0 -54.5 -18t-41.5 -44v-338q0 -28 -53 -28h-19q-53 0 -53 28v330q0 67 -6 97.5t-6 37.5q0 14 33 21.5t58 7.5q16 0 23 -14t10.5 -29.5t4.5 -21.5q27 33 67.5 54t84.5 21q152 0 152 -162z
M765 725v-73q0 -14 -12.5 -21t-40.5 -7h-22q-28 0 -40.5 7t-12.5 21v73q0 28 53 28h22q53 0 53 -28zM763 497v-556q0 -78 -40 -115.5t-99 -37.5q-48 0 -70.5 9.5t-22.5 34.5q0 17 9 39t21 22q5 0 15 -2t20 -2q21 0 32 12.5t11 41.5v554q0 28 52 28h20q52 0 52 -28z" />
    <glyph glyph-name="ntilde" unicode="&#xf1;" 
d="M492 368v-342q0 -28 -52 -28h-20q-52 0 -52 28v325q0 36 -19 55.5t-57 19.5q-29 0 -54.5 -18t-41.5 -44v-338q0 -28 -53 -28h-19q-53 0 -53 28v330q0 67 -6 97.5t-6 37.5q0 14 33 21.5t58 7.5q16 0 23 -14t10.5 -29.5t4.5 -21.5q27 33 67.5 54t84.5 21q152 0 152 -162z
M238.5 687q23.5 -6 46.5 -13q48 -15 68 -16q21 0 37 21q13 16 25 16q4 0 12 -2l10 -3q18 -6 18 -21q0 -6 -3 -14q-12 -32 -38.5 -51t-63.5 -19q-25 0 -85 18q-19 6 -38 11t-31 5q-21 0 -37 -21q-12 -16 -24 -16q-4 0 -12 2l-11 4q-18 6 -18 22q0 7 3 13q13 32 39.5 51
t63.5 19q15 0 38.5 -6z" />
    <glyph glyph-name="o" unicode="o" horiz-adv-x="569" 
d="M462.5 461q60.5 -69 60.5 -200t-60.5 -199.5t-176.5 -68.5q-117 0 -178 69t-61 199q0 131 61.5 200t177.5 69t176.5 -69zM201 388.5q-27 -41.5 -27 -126.5t27 -127t83 -42q57 0 84 42t27 127t-27 126.5t-84 41.5q-56 0 -83 -41.5z" />
    <glyph glyph-name="oacute" unicode="&#xf3;" horiz-adv-x="569" 
d="M462.5 461q60.5 -69 60.5 -200t-60.5 -199.5t-176.5 -68.5q-117 0 -178 69t-61 199q0 131 61.5 200t177.5 69t176.5 -69zM201 388.5q-27 -41.5 -27 -126.5t27 -127t83 -42q57 0 84 42t27 127t-27 126.5t-84 41.5q-56 0 -83 -41.5zM407.5 730q13.5 -3 13.5 -10
q0 -6 -11.5 -20t-37.5 -42l-52 -57q-20 -22 -66 -22q-16 0 -22 3t-6 10q0 4 6.5 16.5t13.5 25.5t11 19q34 60 31 54q16 26 77 26q29 0 42.5 -3z" />
    <glyph glyph-name="obreve" unicode="&#x14f;" horiz-adv-x="569" 
d="M462.5 461q60.5 -69 60.5 -200t-60.5 -199.5t-176.5 -68.5q-117 0 -178 69t-61 199q0 131 61.5 200t177.5 69t176.5 -69zM201 388.5q-27 -41.5 -27 -126.5t27 -127t83 -42q57 0 84 42t27 127t-27 126.5t-84 41.5q-56 0 -83 -41.5zM431 692q0 -48 -42.5 -80.5
t-103.5 -32.5t-103.5 32.5t-42.5 80.5q0 23 28 23q10 0 15 -3.5t8.5 -9.5t5.5 -8q23 -33 89 -33q65 0 91 35q2 2 6 8t9 8.5t12 2.5q28 0 28 -23z" />
    <glyph glyph-name="ocircumflex" unicode="&#xf4;" horiz-adv-x="569" 
d="M462.5 461q60.5 -69 60.5 -200t-60.5 -199.5t-176.5 -68.5q-117 0 -178 69t-61 199q0 131 61.5 200t177.5 69t176.5 -69zM201 388.5q-27 -41.5 -27 -126.5t27 -127t83 -42q57 0 84 42t27 127t-27 126.5t-84 41.5q-56 0 -83 -41.5zM327 714q13 -4 21 -16l62 -97
q6 -9 6 -16q0 -12 -21 -12h-15q-40 0 -55 20l-41 53l-40 -52q-9 -12 -22.5 -16.5t-32.5 -4.5h-15q-21 0 -21 12q0 7 6 16l62 97q7 12 20.5 16t34.5 4h16q22 0 35 -4z" />
    <glyph glyph-name="uni1ED1" unicode="&#x1ed1;" horiz-adv-x="569" 
d="M543.5 859q13.5 -3 13.5 -10q0 -6 -11.5 -20t-37.5 -42l-52 -57q-20 -22 -66 -22q-16 0 -22 3t-6 10q0 4 6.5 16.5t13.5 25.5t11 19q34 59 31 54q16 26 77 26q29 0 42.5 -3zM322.5 713.5q11.5 -4.5 17.5 -15.5l57 -97q6 -9 6 -16q0 -12 -21 -12h-15q-47 0 -55 20l-26 53
l-40 -52q-9 -12 -22.5 -16.5t-32.5 -4.5h-15q-21 0 -21 12q0 7 6 16l62 97q7 12 20.5 16t34.5 4h16q17 0 28.5 -4.5zM462.5 461q60.5 -69 60.5 -200t-60.5 -199.5t-176.5 -68.5q-117 0 -178 69t-61 199q0 131 61.5 200t177.5 69t176.5 -69zM201 388.5q-27 -41.5 -27 -126.5
t27 -127t83 -42q57 0 84 42t27 127t-27 126.5t-84 41.5q-56 0 -83 -41.5z" />
    <glyph glyph-name="uni1ED9" unicode="&#x1ed9;" horiz-adv-x="569" 
d="M462.5 461q60.5 -69 60.5 -200t-60.5 -199.5t-176.5 -68.5q-117 0 -178 69t-61 199q0 131 61.5 200t177.5 69t176.5 -69zM201 388.5q-27 -41.5 -27 -126.5t27 -127t83 -42q57 0 84 42t27 127t-27 126.5t-84 41.5q-56 0 -83 -41.5zM328 714q13 -4 21 -16l62 -97
q6 -9 6 -16q0 -12 -21 -12h-15q-40 0 -55 20l-41 53l-40 -52q-9 -12 -22.5 -16.5t-32.5 -4.5h-15q-21 0 -21 12q0 7 6 16l62 97q7 12 20.5 16t34.5 4h16q22 0 35 -4zM347 -108v-57q0 -28 -54 -28q-28 0 -40.5 7t-12.5 21v57q0 28 54 28q53 0 53 -28z" />
    <glyph glyph-name="uni1ED3" unicode="&#x1ed3;" horiz-adv-x="569" 
d="M425 836q24 -43 37 -64q12 -20 19 -33t7 -18q0 -7 -6 -10t-22 -3q-47 0 -67 22l-53 58q-25 28 -36 41.5t-11 19.5q0 7 13.5 10t42.5 3q62 0 76 -26zM322.5 713.5q11.5 -4.5 17.5 -15.5l57 -97q6 -9 6 -16q0 -12 -21 -12h-15q-47 0 -55 20l-26 53l-40 -52
q-9 -12 -22.5 -16.5t-32.5 -4.5h-15q-21 0 -21 12q0 7 6 16l62 97q7 12 20.5 16t34.5 4h16q17 0 28.5 -4.5zM462.5 461q60.5 -69 60.5 -200t-60.5 -199.5t-176.5 -68.5q-117 0 -178 69t-61 199q0 131 61.5 200t177.5 69t176.5 -69zM201 388.5q-27 -41.5 -27 -126.5t27 -127
t83 -42q57 0 84 42t27 127t-27 126.5t-84 41.5q-56 0 -83 -41.5z" />
    <glyph glyph-name="uni1ED5" unicode="&#x1ed5;" horiz-adv-x="569" 
d="M447 815.5q-10 6.5 -24 6.5q-16 0 -28.5 -6t-14.5 -6q-6 0 -17 14.5t-11 24.5t26.5 20.5t52.5 10.5q46 0 75 -19.5t29 -56.5q0 -26 -19.5 -51t-43.5 -41t-34 -16q-13 0 -29.5 7.5t-16.5 13.5q0 7 6 13t20 17q19 15 29 26t10 25q0 11 -10 17.5zM322.5 713.5
q11.5 -4.5 17.5 -15.5l57 -97q6 -9 6 -16q0 -12 -21 -12h-15q-47 0 -55 20l-26 53l-40 -52q-9 -12 -22.5 -16.5t-32.5 -4.5h-15q-21 0 -21 12q0 7 6 16l62 97q7 12 20.5 16t34.5 4h16q17 0 28.5 -4.5zM462.5 461q60.5 -69 60.5 -200t-60.5 -199.5t-176.5 -68.5
q-117 0 -178 69t-61 199q0 131 61.5 200t177.5 69t176.5 -69zM201 388.5q-27 -41.5 -27 -126.5t27 -127t83 -42q57 0 84 42t27 127t-27 126.5t-84 41.5q-56 0 -83 -41.5z" />
    <glyph glyph-name="uni1ED7" unicode="&#x1ed7;" horiz-adv-x="569" 
d="M294 856q18 -6 35.5 -11t28.5 -5q20 0 34 20q11 17 22 17q5 0 11 -3l9 -3q17 -6 17 -22q0 -5 -3 -13q-12 -32 -36 -51t-57 -19q-22 0 -76 18q-18 6 -35.5 11t-28.5 5q-18 0 -33 -21q-11 -16 -22 -16q-3 0 -11 2l-10 4q-16 5 -16 21q0 7 3 14q12 32 36 51t57 19
q21 0 75 -18zM327 714q13 -4 21 -16l62 -97q6 -9 6 -16q0 -12 -21 -12h-15q-40 0 -55 20l-41 53l-40 -52q-9 -12 -22.5 -16.5t-32.5 -4.5h-15q-21 0 -21 12q0 7 6 16l62 97q7 12 20.5 16t34.5 4h16q22 0 35 -4zM462.5 461q60.5 -69 60.5 -200t-60.5 -199.5t-176.5 -68.5
q-117 0 -178 69t-61 199q0 131 61.5 200t177.5 69t176.5 -69zM201 388.5q-27 -41.5 -27 -126.5t27 -127t83 -42q57 0 84 42t27 127t-27 126.5t-84 41.5q-56 0 -83 -41.5z" />
    <glyph glyph-name="odieresis" unicode="&#xf6;" horiz-adv-x="569" 
d="M462.5 461q60.5 -69 60.5 -200t-60.5 -199.5t-176.5 -68.5q-117 0 -178 69t-61 199q0 131 61.5 200t177.5 69t176.5 -69zM201 388.5q-27 -41.5 -27 -126.5t27 -127t83 -42q57 0 84 42t27 127t-27 126.5t-84 41.5q-56 0 -83 -41.5zM255 674v-57q0 -28 -54 -28
q-28 0 -40.5 7t-12.5 21v57q0 28 54 28q53 0 53 -28zM422 674v-57q0 -28 -54 -28q-28 0 -40.5 7t-12.5 21v57q0 28 54 28q53 0 53 -28z" />
    <glyph glyph-name="uni1ECD" unicode="&#x1ecd;" horiz-adv-x="569" 
d="M462.5 461q60.5 -69 60.5 -200t-60.5 -199.5t-176.5 -68.5q-117 0 -178 69t-61 199q0 131 61.5 200t177.5 69t176.5 -69zM201 388.5q-27 -41.5 -27 -126.5t27 -127t83 -42q57 0 84 42t27 127t-27 126.5t-84 41.5q-56 0 -83 -41.5zM347 -108v-57q0 -28 -54 -28
q-28 0 -40.5 7t-12.5 21v57q0 28 54 28q53 0 53 -28z" />
    <glyph glyph-name="ograve" unicode="&#xf2;" horiz-adv-x="569" 
d="M462.5 461q60.5 -69 60.5 -200t-60.5 -199.5t-176.5 -68.5q-117 0 -178 69t-61 199q0 131 61.5 200t177.5 69t176.5 -69zM201 388.5q-27 -41.5 -27 -126.5t27 -127t83 -42q57 0 84 42t27 127t-27 126.5t-84 41.5q-56 0 -83 -41.5zM289 707q24 -43 37 -64q12 -20 19 -33
t7 -18q0 -7 -6 -10t-22 -3q-47 0 -67 22l-53 58q-25 28 -36 41.5t-11 19.5q0 7 13.5 10t42.5 3q62 0 76 -26z" />
    <glyph glyph-name="uni1ECF" unicode="&#x1ecf;" horiz-adv-x="569" 
d="M462.5 461q60.5 -69 60.5 -200t-60.5 -199.5t-176.5 -68.5q-117 0 -178 69t-61 199q0 131 61.5 200t177.5 69t176.5 -69zM201 388.5q-27 -41.5 -27 -126.5t27 -127t83 -42q57 0 84 42t27 127t-27 126.5t-84 41.5q-56 0 -83 -41.5zM311 686.5q-10 6.5 -24 6.5
q-16 0 -28.5 -6t-14.5 -6q-6 0 -17 14.5t-11 24.5t26.5 20.5t52.5 10.5q46 0 75 -19.5t29 -56.5q0 -26 -19.5 -51t-43.5 -41t-34 -16q-13 0 -29.5 7.5t-16.5 13.5q0 7 6 13t20 17q19 15 29 26t10 25q0 11 -10 17.5z" />
    <glyph glyph-name="ohorn" unicode="&#x1a1;" horiz-adv-x="569" 
d="M531.5 496q-24.5 -24 -74.5 -29q66 -69 66 -206q0 -131 -60.5 -199.5t-176.5 -68.5q-117 0 -178 69t-61 199q0 131 61.5 200t177.5 69q70 0 119 -25h28q50 0 50 35q1 10 -3.5 17.5t-13.5 20.5q-10 14 -10 18q0 11 10 17l30 20q5 5 14 5q18 0 32 -27.5t14 -52.5
q0 -38 -24.5 -62zM368 135q27 42 27 127t-27 126.5t-84 41.5q-56 0 -83 -41.5t-27 -126.5t27 -127t83 -42q57 0 84 42z" />
    <glyph glyph-name="uni1EDB" unicode="&#x1edb;" horiz-adv-x="569" 
d="M228 583q-6 3 -6 10q0 4 6.5 16.5t13.5 25.5t11 19q34 59 31 54q16 26 77 26q29 0 42.5 -3t13.5 -10q0 -6 -11.5 -20t-37.5 -42l-52 -57q-20 -22 -66 -22q-16 0 -22 3zM531.5 496q-24.5 -24 -74.5 -29q66 -69 66 -206q0 -131 -60.5 -199.5t-176.5 -68.5q-117 0 -178 69
t-61 199q0 131 61.5 200t177.5 69q70 0 119 -25h28q50 0 50 35q1 10 -3.5 17.5t-13.5 20.5q-10 14 -10 18q0 11 10 17l30 20q5 5 14 5q18 0 32 -27.5t14 -52.5q0 -38 -24.5 -62zM368 135q27 42 27 127t-27 126.5t-84 41.5q-56 0 -83 -41.5t-27 -126.5t27 -127t83 -42
q57 0 84 42z" />
    <glyph glyph-name="uni1EE3" unicode="&#x1ee3;" horiz-adv-x="569" 
d="M531.5 496q-24.5 -24 -74.5 -29q66 -69 66 -206q0 -131 -60.5 -199.5t-176.5 -68.5q-117 0 -178 69t-61 199q0 131 61.5 200t177.5 69q70 0 119 -25h28q50 0 50 35q1 10 -3.5 17.5t-13.5 20.5q-10 14 -10 18q0 11 10 17l30 20q5 5 14 5q18 0 32 -27.5t14 -52.5
q0 -38 -24.5 -62zM368 135q27 42 27 127t-27 126.5t-84 41.5q-56 0 -83 -41.5t-27 -126.5t27 -127t83 -42q57 0 84 42zM347 -108v-57q0 -28 -54 -28q-28 0 -40.5 7t-12.5 21v57q0 28 54 28q53 0 53 -28z" />
    <glyph glyph-name="uni1EDD" unicode="&#x1edd;" horiz-adv-x="569" 
d="M253 602l-53 58q-25 28 -36 41.5t-11 19.5q0 7 13.5 10t42.5 3q62 0 76 -26q24 -43 37 -64q12 -20 19 -33t7 -18q0 -7 -6 -10t-22 -3q-47 0 -67 22zM531.5 496q-24.5 -24 -74.5 -29q66 -69 66 -206q0 -131 -60.5 -199.5t-176.5 -68.5q-117 0 -178 69t-61 199
q0 131 61.5 200t177.5 69q70 0 119 -25h28q50 0 50 35q1 10 -3.5 17.5t-13.5 20.5q-10 14 -10 18q0 11 10 17l30 20q5 5 14 5q18 0 32 -27.5t14 -52.5q0 -38 -24.5 -62zM368 135q27 42 27 127t-27 126.5t-84 41.5q-56 0 -83 -41.5t-27 -126.5t27 -127t83 -42q57 0 84 42z
" />
    <glyph glyph-name="uni1EDF" unicode="&#x1edf;" horiz-adv-x="569" 
d="M223 696.5q-11 14.5 -11 24.5t26.5 20.5t52.5 10.5q46 0 75 -19.5t29 -56.5q0 -26 -19.5 -51t-43.5 -41t-34 -16q-13 0 -29.5 7.5t-16.5 13.5q0 7 6 13t20 17q19 15 29 26t10 25q0 11 -10 17.5t-24 6.5q-16 0 -28.5 -6t-14.5 -6q-6 0 -17 14.5zM531.5 496
q-24.5 -24 -74.5 -29q66 -69 66 -206q0 -131 -60.5 -199.5t-176.5 -68.5q-117 0 -178 69t-61 199q0 131 61.5 200t177.5 69q70 0 119 -25h28q50 0 50 35q1 10 -3.5 17.5t-13.5 20.5q-10 14 -10 18q0 11 10 17l30 20q5 5 14 5q18 0 32 -27.5t14 -52.5q0 -38 -24.5 -62z
M368 135q27 42 27 127t-27 126.5t-84 41.5q-56 0 -83 -41.5t-27 -126.5t27 -127t83 -42q57 0 84 42z" />
    <glyph glyph-name="uni1EE1" unicode="&#x1ee1;" horiz-adv-x="569" 
d="M103 610q0 7 3 14q12 32 36 51t57 19q13 0 34.5 -6t41.5 -13q43 -15 61 -16q19 0 34 21q11 16 22 16q3 0 11 -2l9 -3q16 -5 16 -21q0 -6 -3 -14q-11 -32 -34.5 -51t-56.5 -19q-23 0 -77 18q-4 1 -26 8.5t-36 7.5q-19 0 -33 -21q-11 -16 -22 -16q-3 0 -11 2l-10 4
q-16 6 -16 21zM531.5 496q-24.5 -24 -74.5 -29q66 -69 66 -206q0 -131 -60.5 -199.5t-176.5 -68.5q-117 0 -178 69t-61 199q0 131 61.5 200t177.5 69q70 0 119 -25h28q50 0 50 35q1 10 -3.5 17.5t-13.5 20.5q-10 14 -10 18q0 11 10 17l30 20q5 5 14 5q18 0 32 -27.5
t14 -52.5q0 -38 -24.5 -62zM368 135q27 42 27 127t-27 126.5t-84 41.5q-56 0 -83 -41.5t-27 -126.5t27 -127t83 -42q57 0 84 42z" />
    <glyph glyph-name="ohungarumlaut" unicode="&#x151;" horiz-adv-x="569" 
d="M462.5 461q60.5 -69 60.5 -200t-60.5 -199.5t-176.5 -68.5q-117 0 -178 69t-61 199q0 131 61.5 200t177.5 69t176.5 -69zM201 388.5q-27 -41.5 -27 -126.5t27 -127t83 -42q57 0 84 42t27 127t-27 126.5t-84 41.5q-56 0 -83 -41.5zM327.5 730q13.5 -3 13.5 -10
q0 -6 -11.5 -20t-37.5 -42l-52 -57q-20 -22 -66 -22q-16 0 -22 3t-6 10q0 4 6.5 16.5t13.5 25.5t11 19q34 60 31 54q16 26 77 26q29 0 42.5 -3zM497.5 730q13.5 -3 13.5 -10q0 -6 -11.5 -20t-37.5 -42l-52 -57q-20 -22 -66 -22q-16 0 -22 3t-6 10q0 4 6.5 16.5t13.5 25.5
t11 19q34 60 31 54q16 26 77 26q29 0 42.5 -3z" />
    <glyph glyph-name="omacron" unicode="&#x14d;" horiz-adv-x="569" 
d="M462.5 461q60.5 -69 60.5 -200t-60.5 -199.5t-176.5 -68.5q-117 0 -178 69t-61 199q0 131 61.5 200t177.5 69t176.5 -69zM201 388.5q-27 -41.5 -27 -126.5t27 -127t83 -42q57 0 84 42t27 127t-27 126.5t-84 41.5q-56 0 -83 -41.5zM414.5 679.5q6.5 -8.5 6.5 -27.5v-13
q0 -20 -6.5 -28.5t-20.5 -8.5h-218q-14 0 -20 9t-6 28v13q0 19 6 27.5t20 8.5h218q14 0 20.5 -8.5z" />
    <glyph glyph-name="uni01EB" unicode="&#x1eb;" horiz-adv-x="569" 
d="M471 -131q0 -30 -22.5 -41t-59.5 -11q-70 0 -94 33t-24 69q0 17 4 38t15 36h-4q-117 0 -178 69t-61 199q0 131 61.5 200t177.5 69t176.5 -69t60.5 -200q0 -112 -44 -178.5t-130 -83.5v-3q0 -4 -4 -20q-7 -23 -7 -38q0 -32 18 -41.5t44 -9.5q15 0 28 5q14 4 22 4
q21 0 21 -27zM368 135q27 42 27 127t-27 126.5t-84 41.5q-56 0 -83 -41.5t-27 -126.5t27 -127t83 -42q57 0 84 42z" />
    <glyph glyph-name="oslash" unicode="&#xf8;" horiz-adv-x="569" 
d="M434 486l33 38q10 12 19 12q10 0 24.5 -13t14.5 -23q0 -9 -9 -18l-37 -44q44 -66 44 -177q0 -138 -63.5 -203t-173.5 -65q-94 0 -152 44l-28 -33q-11 -11 -19 -11q-10 0 -24.5 12.5t-14.5 23.5q0 8 9 18l33 38q-43 65 -43 176q0 138 64.5 203.5t174.5 65.5q93 0 148 -44z
M201.5 388.5q-27.5 -40.5 -27.5 -126.5q0 -40 8 -70l177 207q-26 30 -74 30q-56 0 -83.5 -40.5zM209 124q26 -30 76 -30q55 0 82.5 40.5t27.5 127.5q0 43 -8 71z" />
    <glyph glyph-name="oslashacute" unicode="&#x1ff;" horiz-adv-x="569" 
d="M434 486l33 38q10 12 19 12q10 0 24.5 -13t14.5 -23q0 -9 -9 -18l-37 -44q44 -66 44 -177q0 -138 -63.5 -203t-173.5 -65q-94 0 -152 44l-28 -33q-11 -11 -19 -11q-10 0 -24.5 12.5t-14.5 23.5q0 8 9 18l33 38q-43 65 -43 176q0 138 64.5 203.5t174.5 65.5q93 0 148 -44z
M201.5 388.5q-27.5 -40.5 -27.5 -126.5q0 -40 8 -70l177 207q-26 30 -74 30q-56 0 -83.5 -40.5zM209 124q26 -30 76 -30q55 0 82.5 40.5t27.5 127.5q0 43 -8 71zM407.5 730q13.5 -3 13.5 -10q0 -6 -11.5 -20t-37.5 -42l-52 -57q-20 -22 -66 -22q-16 0 -22 3t-6 10
q0 4 6.5 16.5t13.5 25.5t11 19q34 60 31 54q16 26 77 26q29 0 42.5 -3z" />
    <glyph glyph-name="otilde" unicode="&#xf5;" horiz-adv-x="569" 
d="M462.5 461q60.5 -69 60.5 -200t-60.5 -199.5t-176.5 -68.5q-117 0 -178 69t-61 199q0 131 61.5 200t177.5 69t176.5 -69zM201 388.5q-27 -41.5 -27 -126.5t27 -127t83 -42q57 0 84 42t27 127t-27 126.5t-84 41.5q-56 0 -83 -41.5zM244.5 687q23.5 -6 46.5 -13
q48 -15 68 -16q21 0 37 21q13 16 25 16q4 0 12 -2l10 -3q18 -6 18 -21q0 -6 -3 -14q-12 -32 -38.5 -51t-63.5 -19q-25 0 -85 18q-19 6 -38 11t-31 5q-21 0 -37 -21q-12 -16 -24 -16q-4 0 -12 2l-11 4q-18 6 -18 22q0 7 3 13q13 32 39.5 51t63.5 19q15 0 38.5 -6z" />
    <glyph glyph-name="oe" unicode="&#x153;" horiz-adv-x="871" 
d="M795.5 102q16.5 -26 16.5 -40q0 -19 -28.5 -35t-71 -25t-80.5 -9q-120 0 -182 59q-64 -59 -165 -59q-117 0 -178 69t-61 199q0 131 61.5 200t177.5 69q101 0 163 -59q60 59 168 59t160.5 -70t52.5 -189q0 -11 -17.5 -31.5t-27.5 -20.5h-277q5 -67 37 -96.5t92 -29.5
q33 0 58.5 8t52.5 20q16 7 19 7q13 0 29.5 -26zM387 166q-10 39 -10 92q0 51 10 99q-25 73 -103 73q-56 0 -83 -41.5t-27 -126.5t27 -127t83 -42q78 0 103 73zM507 308h198q0 58 -22.5 90t-67.5 32q-94 0 -108 -122z" />
    <glyph glyph-name="p" unicode="p" horiz-adv-x="573" 
d="M436 497.5q43 -32.5 66.5 -93.5t23.5 -143q0 -125 -55.5 -196.5t-152.5 -71.5q-66 0 -117 38v-209q0 -29 -53 -29h-19q-53 0 -53 29v534q0 67 -6 97.5t-6 37.5q0 14 33 21.5t58 7.5q16 0 23 -14t10.5 -29.5t4.5 -21.5q25 35 62 55t81 20q57 0 100 -32.5zM247.5 410
q-25.5 -17 -46.5 -46v-241q39 -29 90 -29q54 1 81 42.5t27 121.5q0 82 -24.5 125.5t-72.5 43.5q-29 0 -54.5 -17z" />
    <glyph glyph-name="thorn" unicode="&#xfe;" horiz-adv-x="570" 
d="M197 725v-258q25 30 60 46.5t75 16.5q56 0 99 -32.5t67 -93.5t24 -143q0 -125 -55.5 -196.5t-152.5 -71.5q-66 0 -117 38v-209q0 -29 -53 -29h-19q-53 0 -53 29v903q0 28 53 28h19q53 0 53 -28zM243.5 410q-25.5 -17 -46.5 -46v-241q39 -29 90 -29q54 1 81 42.5t27 121.5
q0 82 -24.5 125.5t-72.5 43.5q-29 0 -54.5 -17z" />
    <glyph glyph-name="q" unicode="q" horiz-adv-x="566" 
d="M320 510q37 -20 62 -55q5 26 12 49q4 12 15 16.5t32 4.5h9q49 0 49 -28v-675q0 -29 -53 -29h-19q-53 0 -53 29v209q-51 -38 -117 -38q-98 0 -154.5 71.5t-56.5 196.5q0 82 24 143t68 93.5t101 32.5q44 0 81 -20zM198 383.5q-25 -43.5 -25 -125.5q0 -80 28 -121.5
t83 -42.5q49 0 90 29v241q-47 63 -102 63q-49 0 -74 -43.5z" />
    <glyph glyph-name="r" unicode="r" horiz-adv-x="366" 
d="M344.5 515.5q13.5 -14.5 13.5 -33.5t-8 -46t-19 -27q-6 0 -21 4.5t-29 4.5q-29 0 -51.5 -18.5t-32.5 -35.5v-338q0 -28 -53 -28h-19q-53 0 -53 28v330q0 67 -6 97.5t-6 37.5q0 14 33 21.5t58 7.5q16 0 23 -14t10.5 -29.5t4.5 -21.5q22 35 48.5 55t63.5 20
q30 0 43.5 -14.5z" />
    <glyph glyph-name="racute" unicode="&#x155;" horiz-adv-x="366" 
d="M344.5 515.5q13.5 -14.5 13.5 -33.5t-8 -46t-19 -27q-6 0 -21 4.5t-29 4.5q-29 0 -51.5 -18.5t-32.5 -35.5v-338q0 -28 -53 -28h-19q-53 0 -53 28v330q0 67 -6 97.5t-6 37.5q0 14 33 21.5t58 7.5q16 0 23 -14t10.5 -29.5t4.5 -21.5q22 35 48.5 55t63.5 20
q30 0 43.5 -14.5zM257.5 727q13.5 -3 13.5 -10q0 -6 -11.5 -20t-37.5 -42l-52 -57q-20 -22 -66 -22q-16 0 -22 3t-6 10q0 4 6.5 16.5t13.5 25.5t11 19q34 60 31 54q16 26 77 26q29 0 42.5 -3z" />
    <glyph glyph-name="rcaron" unicode="&#x159;" horiz-adv-x="366" 
d="M344.5 515.5q13.5 -14.5 13.5 -33.5t-8 -46t-19 -27q-6 0 -21 4.5t-29 4.5q-29 0 -51.5 -18.5t-32.5 -35.5v-338q0 -28 -53 -28h-19q-53 0 -53 28v330q0 67 -6 97.5t-6 37.5q0 14 33 21.5t58 7.5q16 0 23 -14t10.5 -29.5t4.5 -21.5q22 35 48.5 55t63.5 20
q30 0 43.5 -14.5zM267 705q0 -6 -6 -15l-62 -97q-8 -12 -21 -16t-35 -4h-16q-21 0 -34.5 4t-20.5 16l-62 97q-6 9 -6 16q0 11 21 11h15q39 0 55 -20l40 -52l41 52q14 20 55 20h15q21 0 21 -12z" />
    <glyph glyph-name="rcommaaccent" unicode="&#x157;" horiz-adv-x="366" 
d="M344.5 515.5q13.5 -14.5 13.5 -33.5t-8 -46t-19 -27q-6 0 -21 4.5t-29 4.5q-29 0 -51.5 -18.5t-32.5 -35.5v-338q0 -28 -53 -28h-19q-53 0 -53 28v330q0 67 -6 97.5t-6 37.5q0 14 33 21.5t58 7.5q16 0 23 -14t10.5 -29.5t4.5 -21.5q22 35 48.5 55t63.5 20
q30 0 43.5 -14.5zM187 -63.5q12 -10.5 12 -27.5q0 -36 -18.5 -70.5t-44 -56.5t-43.5 -22q-14 0 -26.5 5t-12.5 14q0 6 3.5 14t4.5 11q11 25 17 47t6 56q0 19 13 29.5t40 10.5h15q22 0 34 -10.5z" />
    <glyph glyph-name="uni1E5B" unicode="&#x1e5b;" horiz-adv-x="366" 
d="M344.5 515.5q13.5 -14.5 13.5 -33.5t-8 -46t-19 -27q-6 0 -21 4.5t-29 4.5q-29 0 -51.5 -18.5t-32.5 -35.5v-338q0 -28 -53 -28h-19q-53 0 -53 28v330q0 67 -6 97.5t-6 37.5q0 14 33 21.5t58 7.5q16 0 23 -14t10.5 -29.5t4.5 -21.5q22 35 48.5 55t63.5 20
q30 0 43.5 -14.5zM200 -110v-57q0 -28 -54 -28q-28 0 -40.5 7t-12.5 21v57q0 28 54 28q53 0 53 -28z" />
    <glyph glyph-name="s" unicode="s" horiz-adv-x="413" 
d="M318.5 516.5q45.5 -14.5 45.5 -38.5q0 -16 -14 -43t-25 -27q-3 0 -28.5 11.5t-59.5 11.5q-30 0 -48 -11.5t-18 -33.5q0 -21 12.5 -35t29.5 -22t58 -25q59 -23 86.5 -55t27.5 -92q0 -73 -52 -119t-138 -46q-40 0 -77.5 9t-61.5 24.5t-24 32.5q0 16 17 41.5t29 25.5
q5 0 19 -8q24 -11 43 -17.5t46 -6.5q72 0 72 56q0 28 -21 43t-70 32q-59 20 -91 53.5t-32 96.5q0 72 48 114.5t128 42.5q53 0 98.5 -14.5z" />
    <glyph glyph-name="sacute" unicode="&#x15b;" horiz-adv-x="413" 
d="M318.5 516.5q45.5 -14.5 45.5 -38.5q0 -16 -14 -43t-25 -27q-3 0 -28.5 11.5t-59.5 11.5q-30 0 -48 -11.5t-18 -33.5q0 -21 12.5 -35t29.5 -22t58 -25q59 -23 86.5 -55t27.5 -92q0 -73 -52 -119t-138 -46q-40 0 -77.5 9t-61.5 24.5t-24 32.5q0 16 17 41.5t29 25.5
q5 0 19 -8q24 -11 43 -17.5t46 -6.5q72 0 72 56q0 28 -21 43t-70 32q-59 20 -91 53.5t-32 96.5q0 72 48 114.5t128 42.5q53 0 98.5 -14.5zM329.5 730q13.5 -3 13.5 -10q0 -6 -11.5 -20t-37.5 -42l-52 -57q-20 -22 -66 -22q-16 0 -22 3t-6 10q0 4 6.5 16.5t13.5 25.5t11 19
q34 60 31 54q16 26 77 26q29 0 42.5 -3z" />
    <glyph glyph-name="scaron" unicode="&#x161;" horiz-adv-x="413" 
d="M318.5 516.5q45.5 -14.5 45.5 -38.5q0 -16 -14 -43t-25 -27q-3 0 -28.5 11.5t-59.5 11.5q-30 0 -48 -11.5t-18 -33.5q0 -21 12.5 -35t29.5 -22t58 -25q59 -23 86.5 -55t27.5 -92q0 -73 -52 -119t-138 -46q-40 0 -77.5 9t-61.5 24.5t-24 32.5q0 16 17 41.5t29 25.5
q5 0 19 -8q24 -11 43 -17.5t46 -6.5q72 0 72 56q0 28 -21 43t-70 32q-59 20 -91 53.5t-32 96.5q0 72 48 114.5t128 42.5q53 0 98.5 -14.5zM339 708q0 -6 -6 -15l-62 -97q-8 -12 -21 -16t-35 -4h-16q-21 0 -34.5 4t-20.5 16l-62 97q-6 9 -6 16q0 11 21 11h15q39 0 55 -20
l40 -52l41 52q14 20 55 20h15q21 0 21 -12z" />
    <glyph glyph-name="scedilla" unicode="&#x15f;" horiz-adv-x="413" 
d="M345 49q-40 -44 -109 -54l-10 -35q32 -3 57 -20.5t25 -54.5q0 -96 -118 -96q-44 0 -84.5 13t-40.5 34q0 18 9 28t18 10q8 0 30 -8q35 -13 58 -13q36 0 36 24q0 11 -7.5 17t-23.5 12q-13 5 -19.5 9.5t-6.5 12.5t18 65q-57 3 -101 22t-44 43q0 16 17 41.5t29 25.5
q5 0 19 -8q24 -11 43 -17.5t46 -6.5q72 0 72 56q0 28 -21 43t-70 32q-59 20 -91 53.5t-32 96.5q0 72 48 114.5t128 42.5q53 0 98.5 -14.5t45.5 -38.5q0 -16 -14 -43t-25 -27q-3 0 -28.5 11.5t-59.5 11.5q-30 0 -48 -11.5t-18 -33.5q0 -21 12.5 -35t29.5 -22t58 -25
q59 -23 86.5 -55t27.5 -92q0 -64 -40 -108z" />
    <glyph glyph-name="scircumflex" unicode="&#x15d;" horiz-adv-x="413" 
d="M318.5 516.5q45.5 -14.5 45.5 -38.5q0 -16 -14 -43t-25 -27q-3 0 -28.5 11.5t-59.5 11.5q-30 0 -48 -11.5t-18 -33.5q0 -21 12.5 -35t29.5 -22t58 -25q59 -23 86.5 -55t27.5 -92q0 -73 -52 -119t-138 -46q-40 0 -77.5 9t-61.5 24.5t-24 32.5q0 16 17 41.5t29 25.5
q5 0 19 -8q24 -11 43 -17.5t46 -6.5q72 0 72 56q0 28 -21 43t-70 32q-59 20 -91 53.5t-32 96.5q0 72 48 114.5t128 42.5q53 0 98.5 -14.5zM249 714q13 -4 21 -16l62 -97q6 -9 6 -16q0 -12 -21 -12h-15q-40 0 -55 20l-41 53l-40 -52q-9 -12 -22.5 -16.5t-32.5 -4.5h-15
q-21 0 -21 12q0 7 6 16l62 97q7 12 20.5 16t34.5 4h16q22 0 35 -4z" />
    <glyph glyph-name="scommaaccent" unicode="&#x219;" horiz-adv-x="413" 
d="M318.5 516.5q45.5 -14.5 45.5 -38.5q0 -16 -14 -43t-25 -27q-3 0 -28.5 11.5t-59.5 11.5q-30 0 -48 -11.5t-18 -33.5q0 -21 12.5 -35t29.5 -22t58 -25q59 -23 86.5 -55t27.5 -92q0 -73 -52 -119t-138 -46q-40 0 -77.5 9t-61.5 24.5t-24 32.5q0 16 17 41.5t29 25.5
q5 0 19 -8q24 -11 43 -17.5t46 -6.5q72 0 72 56q0 28 -21 43t-70 32q-59 20 -91 53.5t-32 96.5q0 72 48 114.5t128 42.5q53 0 98.5 -14.5zM250 -61.5q12 -10.5 12 -27.5q0 -36 -18.5 -70.5t-44 -56.5t-43.5 -22q-14 0 -26.5 5t-12.5 14q0 6 3.5 14t4.5 11q11 25 17 47t6 56
q0 19 13 29.5t40 10.5h15q22 0 34 -10.5z" />
    <glyph glyph-name="uni1E63" unicode="&#x1e63;" horiz-adv-x="413" 
d="M318.5 516.5q45.5 -14.5 45.5 -38.5q0 -16 -14 -43t-25 -27q-3 0 -28.5 11.5t-59.5 11.5q-30 0 -48 -11.5t-18 -33.5q0 -21 12.5 -35t29.5 -22t58 -25q59 -23 86.5 -55t27.5 -92q0 -73 -52 -119t-138 -46q-40 0 -77.5 9t-61.5 24.5t-24 32.5q0 16 17 41.5t29 25.5
q5 0 19 -8q24 -11 43 -17.5t46 -6.5q72 0 72 56q0 28 -21 43t-70 32q-59 20 -91 53.5t-32 96.5q0 72 48 114.5t128 42.5q53 0 98.5 -14.5zM263 -108v-57q0 -28 -54 -28q-28 0 -40.5 7t-12.5 21v57q0 28 54 28q53 0 53 -28z" />
    <glyph glyph-name="germandbls" unicode="&#xdf;" horiz-adv-x="554" 
d="M440.5 662q59.5 -45 59.5 -130q0 -48 -25.5 -87.5t-70.5 -57.5v-4q122 -40 122 -174q0 -62 -28.5 -109.5t-80 -73.5t-118.5 -26h-26q-14 0 -20 10.5t-6 32.5v15q0 22 6 32.5t20 10.5h21q47 0 76 29.5t29 78.5q0 51 -31 82t-82 31h-13q-14 0 -20 10t-6 32v15q0 43 24 43h6
q40 0 67.5 27.5t27.5 67.5q0 38 -23.5 61.5t-63.5 23.5q-42 0 -66 -25.5t-24 -67.5v-483q0 -28 -53 -28h-19q-53 0 -53 28v475q0 62 27.5 108.5t76.5 72t113 25.5q94 0 153.5 -45z" />
    <glyph glyph-name="longs" unicode="&#x17f;" horiz-adv-x="325" 
d="M319 716q0 -12 -7.5 -37t-19.5 -25q-5 0 -15 2t-20 2q-22 0 -32.5 -11.5t-10.5 -42.5v-578q0 -28 -53 -28h-19q-53 0 -53 28v396h-26q-14 0 -20 10.5t-6 32.5v15q0 22 6 32.5t20 10.5h26v82q0 81 38 117.5t102 36.5q90 0 90 -43z" />
    <glyph glyph-name="uni0259" unicode="&#x259;" horiz-adv-x="539" 
d="M92.5 63q-52.5 70 -52.5 189q0 11 17.5 31.5t27.5 20.5h277q-5 67 -37 96.5t-92 29.5q-33 0 -58.5 -8t-52.5 -20q-16 -7 -19 -7q-13 0 -29.5 26t-16.5 40q0 19 28.5 35t71 25t80.5 9q129 0 192 -68t63 -197q0 -138 -62.5 -205t-176.5 -67q-108 0 -160.5 70zM362 215h-198
q0 -58 22.5 -90t67.5 -32q94 0 108 122z" />
    <glyph glyph-name="t" unicode="t" horiz-adv-x="342" 
d="M212 622v-99h62q14 0 20.5 -10t6.5 -33v-15q0 -23 -6.5 -33t-20.5 -10h-62v-274q0 -30 11 -42.5t32 -12.5q10 0 19 2.5t14 2.5q12 0 19.5 -25.5t7.5 -37.5q0 -42 -87 -42q-64 0 -102 36.5t-38 116.5v276h-29q-14 0 -20 10.5t-6 32.5v15q0 22 6 32.5t20 10.5h29l12 99
q5 28 46 28h24q42 0 42 -28z" />
    <glyph glyph-name="tbar" unicode="&#x167;" horiz-adv-x="342" 
d="M307.5 72.5q7.5 -25.5 7.5 -37.5q0 -42 -87 -42q-64 0 -102 36.5t-38 116.5v104h-33q-14 0 -20 9t-6 28v13q0 19 6 27.5t20 8.5h33v86h-29q-14 0 -20 10.5t-6 32.5v15q0 22 6 32.5t20 10.5h29l12 99q5 28 46 28h24q42 0 42 -28v-99h62q14 0 20.5 -10t6.5 -33v-15
q0 -23 -6.5 -33t-20.5 -10h-62v-86h61q14 0 20.5 -8.5t6.5 -27.5v-13q0 -20 -6.5 -28.5t-20.5 -8.5h-61v-102q0 -30 11 -42.5t32 -12.5q10 0 19 2.5t14 2.5q12 0 19.5 -25.5z" />
    <glyph glyph-name="tcaron" unicode="&#x165;" horiz-adv-x="342" 
d="M212 622v-99h62q14 0 20.5 -10t6.5 -33v-15q0 -23 -6.5 -33t-20.5 -10h-62v-274q0 -30 11 -42.5t32 -12.5q10 0 19 2.5t14 2.5q12 0 19.5 -25.5t7.5 -37.5q0 -42 -87 -42q-64 0 -102 36.5t-38 116.5v276h-29q-14 0 -20 10.5t-6 32.5v15q0 22 6 32.5t20 10.5h29l12 99
q5 28 46 28h24q42 0 42 -28zM363 741.5q12 -10.5 12 -27.5q0 -35 -14.5 -68.5t-34.5 -55t-34 -22.5q-14 0 -26.5 5t-12.5 15q0 19 1 32.5t2 23.5q4 42 4 68q0 19 13 29.5t40 10.5h15q23 0 35 -10.5z" />
    <glyph glyph-name="uni0163" unicode="&#x163;" horiz-adv-x="342" 
d="M282 -60.5q25 -17.5 25 -54.5q0 -96 -118 -96q-44 0 -84.5 13t-40.5 34q0 18 9 28t18 10q8 0 30 -8q35 -13 58 -13q36 0 36 24q0 11 -7.5 17t-23.5 12q-13 5 -19.5 9.5t-6.5 12.5q0 9 20 72q-42 12 -66 48t-24 98v276h-29q-14 0 -20 10.5t-6 32.5v15q0 22 6 32.5t20 10.5
h29l12 99q5 28 46 28h24q42 0 42 -28v-99h62q14 0 20.5 -10t6.5 -33v-15q0 -23 -6.5 -33t-20.5 -10h-62v-274q0 -30 11 -42.5t32 -12.5q10 0 19 2.5t14 2.5q12 0 19.5 -25.5t7.5 -37.5q0 -39 -81 -42l-9 -33q32 -3 57 -20.5z" />
    <glyph glyph-name="uni021B" unicode="&#x21b;" horiz-adv-x="342" 
d="M212 622v-99h62q14 0 20.5 -10t6.5 -33v-15q0 -23 -6.5 -33t-20.5 -10h-62v-274q0 -30 11 -42.5t32 -12.5q10 0 19 2.5t14 2.5q12 0 19.5 -25.5t7.5 -37.5q0 -42 -87 -42q-64 0 -102 36.5t-38 116.5v276h-29q-14 0 -20 10.5t-6 32.5v15q0 22 6 32.5t20 10.5h29l12 99
q5 28 46 28h24q42 0 42 -28zM249 -61.5q12 -10.5 12 -27.5q0 -36 -18.5 -70.5t-44 -56.5t-43.5 -22q-14 0 -26.5 5t-12.5 14q0 6 3.5 14t4.5 11q11 25 17 47t6 56q0 19 13 29.5t40 10.5h15q22 0 34 -10.5z" />
    <glyph glyph-name="uni1E6D" unicode="&#x1e6d;" horiz-adv-x="342" 
d="M212 622v-99h62q14 0 20.5 -10t6.5 -33v-15q0 -23 -6.5 -33t-20.5 -10h-62v-274q0 -30 11 -42.5t32 -12.5q10 0 19 2.5t14 2.5q12 0 19.5 -25.5t7.5 -37.5q0 -42 -87 -42q-64 0 -102 36.5t-38 116.5v276h-29q-14 0 -20 10.5t-6 32.5v15q0 22 6 32.5t20 10.5h29l12 99
q5 28 46 28h24q42 0 42 -28zM263 -108v-57q0 -28 -54 -28q-28 0 -40.5 7t-12.5 21v57q0 28 54 28q53 0 53 -28z" />
    <glyph glyph-name="u" unicode="u" 
d="M486 497v-331q0 -69 6 -100t6 -38q0 -14 -32.5 -21.5t-57.5 -7.5q-17 0 -24 15t-10.5 31.5t-4.5 22.5q-26 -33 -66.5 -54t-84.5 -21q-153 0 -153 162v342q0 28 53 28h19q53 0 53 -28v-325q0 -75 75 -75q29 0 54.5 18t42.5 44v338q0 28 52 28h20q52 0 52 -28z" />
    <glyph glyph-name="uacute" unicode="&#xfa;" 
d="M486 497v-331q0 -69 6 -100t6 -38q0 -14 -32.5 -21.5t-57.5 -7.5q-17 0 -24 15t-10.5 31.5t-4.5 22.5q-26 -33 -66.5 -54t-84.5 -21q-153 0 -153 162v342q0 28 53 28h19q53 0 53 -28v-325q0 -75 75 -75q29 0 54.5 18t42.5 44v338q0 28 52 28h20q52 0 52 -28zM401.5 730
q13.5 -3 13.5 -10q0 -6 -11.5 -20t-37.5 -42l-52 -57q-20 -22 -66 -22q-16 0 -22 3t-6 10q0 4 6.5 16.5t13.5 25.5t11 19q34 60 31 54q16 26 77 26q29 0 42.5 -3z" />
    <glyph glyph-name="ubreve" unicode="&#x16d;" 
d="M486 497v-331q0 -69 6 -100t6 -38q0 -14 -32.5 -21.5t-57.5 -7.5q-17 0 -24 15t-10.5 31.5t-4.5 22.5q-26 -33 -66.5 -54t-84.5 -21q-153 0 -153 162v342q0 28 53 28h19q53 0 53 -28v-325q0 -75 75 -75q29 0 54.5 18t42.5 44v338q0 28 52 28h20q52 0 52 -28zM425 692
q0 -48 -42.5 -80.5t-103.5 -32.5t-103.5 32.5t-42.5 80.5q0 23 28 23q10 0 15 -3.5t8.5 -9.5t5.5 -8q23 -33 89 -33q65 0 91 35q2 2 6 8t9 8.5t12 2.5q28 0 28 -23z" />
    <glyph glyph-name="ucircumflex" unicode="&#xfb;" 
d="M486 497v-331q0 -69 6 -100t6 -38q0 -14 -32.5 -21.5t-57.5 -7.5q-17 0 -24 15t-10.5 31.5t-4.5 22.5q-26 -33 -66.5 -54t-84.5 -21q-153 0 -153 162v342q0 28 53 28h19q53 0 53 -28v-325q0 -75 75 -75q29 0 54.5 18t42.5 44v338q0 28 52 28h20q52 0 52 -28zM321 714
q13 -4 21 -16l62 -97q6 -9 6 -16q0 -12 -21 -12h-15q-40 0 -55 20l-41 53l-40 -52q-9 -12 -22.5 -16.5t-32.5 -4.5h-15q-21 0 -21 12q0 7 6 16l62 97q7 12 20.5 16t34.5 4h16q22 0 35 -4z" />
    <glyph glyph-name="udieresis" unicode="&#xfc;" 
d="M486 497v-331q0 -69 6 -100t6 -38q0 -14 -32.5 -21.5t-57.5 -7.5q-17 0 -24 15t-10.5 31.5t-4.5 22.5q-26 -33 -66.5 -54t-84.5 -21q-153 0 -153 162v342q0 28 53 28h19q53 0 53 -28v-325q0 -75 75 -75q29 0 54.5 18t42.5 44v338q0 28 52 28h20q52 0 52 -28zM249 674v-57
q0 -28 -54 -28q-28 0 -40.5 7t-12.5 21v57q0 28 54 28q53 0 53 -28zM416 674v-57q0 -28 -54 -28q-28 0 -40.5 7t-12.5 21v57q0 28 54 28q53 0 53 -28z" />
    <glyph glyph-name="uni1EE5" unicode="&#x1ee5;" 
d="M486 497v-331q0 -69 6 -100t6 -38q0 -14 -32.5 -21.5t-57.5 -7.5q-17 0 -24 15t-10.5 31.5t-4.5 22.5q-26 -33 -66.5 -54t-84.5 -21q-153 0 -153 162v342q0 28 53 28h19q53 0 53 -28v-325q0 -75 75 -75q29 0 54.5 18t42.5 44v338q0 28 52 28h20q52 0 52 -28zM307 -108
v-57q0 -28 -54 -28q-28 0 -40.5 7t-12.5 21v57q0 28 54 28q53 0 53 -28z" />
    <glyph glyph-name="ugrave" unicode="&#xf9;" 
d="M486 497v-331q0 -69 6 -100t6 -38q0 -14 -32.5 -21.5t-57.5 -7.5q-17 0 -24 15t-10.5 31.5t-4.5 22.5q-26 -33 -66.5 -54t-84.5 -21q-153 0 -153 162v342q0 28 53 28h19q53 0 53 -28v-325q0 -75 75 -75q29 0 54.5 18t42.5 44v338q0 28 52 28h20q52 0 52 -28zM283 707
q24 -43 37 -64q12 -20 19 -33t7 -18q0 -7 -6 -10t-22 -3q-47 0 -67 22l-53 58q-25 28 -36 41.5t-11 19.5q0 7 13.5 10t42.5 3q62 0 76 -26z" />
    <glyph glyph-name="uni1EE7" unicode="&#x1ee7;" 
d="M486 497v-331q0 -69 6 -100t6 -38q0 -14 -32.5 -21.5t-57.5 -7.5q-17 0 -24 15t-10.5 31.5t-4.5 22.5q-26 -33 -66.5 -54t-84.5 -21q-153 0 -153 162v342q0 28 53 28h19q53 0 53 -28v-325q0 -75 75 -75q29 0 54.5 18t42.5 44v338q0 28 52 28h20q52 0 52 -28zM305 686.5
q-10 6.5 -24 6.5q-16 0 -28.5 -6t-14.5 -6q-6 0 -17 14.5t-11 24.5t26.5 20.5t52.5 10.5q46 0 75 -19.5t29 -56.5q0 -26 -19.5 -51t-43.5 -41t-34 -16q-13 0 -29.5 7.5t-16.5 13.5q0 7 6 13t20 17q19 15 29 26t10 25q0 11 -10 17.5z" />
    <glyph glyph-name="uhorn" unicode="&#x1b0;" 
d="M562 515q-25 -24 -76 -28v-321q0 -69 6 -100t6 -38q0 -14 -32.5 -21.5t-57.5 -7.5q-17 0 -24 15t-10.5 31.5t-4.5 22.5q-26 -33 -66.5 -54t-84.5 -21q-153 0 -153 162v342q0 28 53 28h19q53 0 53 -28v-325q0 -75 75 -75q29 0 54.5 18t42.5 44v338q0 28 52 28h50
q50 0 50 35q1 10 -3.5 18.5t-13.5 20.5q-9 10 -10 17q0 12 11 17l29 20q5 5 14 5q18 0 32 -27.5t14 -52.5q0 -39 -25 -63z" />
    <glyph glyph-name="uni1EE9" unicode="&#x1ee9;" 
d="M226 582q-6 3 -6 10q0 4 6.5 16.5t13.5 25.5t11 19q34 60 31 54q16 26 77 26q29 0 42.5 -3t13.5 -10q0 -6 -11.5 -20t-37.5 -42l-52 -57q-20 -22 -66 -22q-16 0 -22 3zM562 515q-25 -24 -76 -28v-321q0 -69 6 -100t6 -38q0 -14 -32.5 -21.5t-57.5 -7.5q-17 0 -24 15
t-10.5 31.5t-4.5 22.5q-26 -33 -66.5 -54t-84.5 -21q-153 0 -153 162v342q0 28 53 28h19q53 0 53 -28v-325q0 -75 75 -75q29 0 54.5 18t42.5 44v338q0 28 52 28h50q50 0 50 35q1 10 -3.5 18.5t-13.5 20.5q-9 10 -10 17q0 12 11 17l29 20q5 5 14 5q18 0 32 -27.5t14 -52.5
q0 -39 -25 -63z" />
    <glyph glyph-name="uni1EF1" unicode="&#x1ef1;" 
d="M562 515q-25 -24 -76 -28v-321q0 -69 6 -100t6 -38q0 -14 -32.5 -21.5t-57.5 -7.5q-17 0 -24 15t-10.5 31.5t-4.5 22.5q-26 -33 -66.5 -54t-84.5 -21q-153 0 -153 162v342q0 28 53 28h19q53 0 53 -28v-325q0 -75 75 -75q29 0 54.5 18t42.5 44v338q0 28 52 28h50
q50 0 50 35q1 10 -3.5 18.5t-13.5 20.5q-9 10 -10 17q0 12 11 17l29 20q5 5 14 5q18 0 32 -27.5t14 -52.5q0 -39 -25 -63zM307 -108v-57q0 -28 -54 -28q-28 0 -40.5 7t-12.5 21v57q0 28 54 28q53 0 53 -28z" />
    <glyph glyph-name="uni1EEB" unicode="&#x1eeb;" 
d="M251 601l-53 58q-25 28 -36 41.5t-11 19.5q0 7 13.5 10t42.5 3q62 0 76 -26q24 -43 37 -64q12 -20 19 -33t7 -18q0 -7 -6 -10t-22 -3q-47 0 -67 22zM562 515q-25 -24 -76 -28v-321q0 -69 6 -100t6 -38q0 -14 -32.5 -21.5t-57.5 -7.5q-17 0 -24 15t-10.5 31.5t-4.5 22.5
q-26 -33 -66.5 -54t-84.5 -21q-153 0 -153 162v342q0 28 53 28h19q53 0 53 -28v-325q0 -75 75 -75q29 0 54.5 18t42.5 44v338q0 28 52 28h50q50 0 50 35q1 10 -3.5 18.5t-13.5 20.5q-9 10 -10 17q0 12 11 17l29 20q5 5 14 5q18 0 32 -27.5t14 -52.5q0 -39 -25 -63z" />
    <glyph glyph-name="uni1EED" unicode="&#x1eed;" 
d="M221 695.5q-11 14.5 -11 24.5t26.5 20.5t52.5 10.5q46 0 75 -19.5t29 -56.5q0 -26 -19.5 -51t-43.5 -41t-34 -16q-13 0 -29.5 7.5t-16.5 13.5q0 7 6 13t20 17q19 15 29 26t10 25q0 11 -10 17.5t-24 6.5q-16 0 -28.5 -6t-14.5 -6q-6 0 -17 14.5zM562 515q-25 -24 -76 -28
v-321q0 -69 6 -100t6 -38q0 -14 -32.5 -21.5t-57.5 -7.5q-17 0 -24 15t-10.5 31.5t-4.5 22.5q-26 -33 -66.5 -54t-84.5 -21q-153 0 -153 162v342q0 28 53 28h19q53 0 53 -28v-325q0 -75 75 -75q29 0 54.5 18t42.5 44v338q0 28 52 28h50q50 0 50 35q1 10 -3.5 18.5
t-13.5 20.5q-9 10 -10 17q0 12 11 17l29 20q5 5 14 5q18 0 32 -27.5t14 -52.5q0 -39 -25 -63z" />
    <glyph glyph-name="uni1EEF" unicode="&#x1eef;" 
d="M112 609q0 7 3 14q12 32 36 51t57 19q13 0 34.5 -6t41.5 -13q43 -15 61 -16q19 0 34 21q11 16 22 16q3 0 11 -2l9 -3q16 -5 16 -21q0 -6 -3 -14q-11 -32 -34.5 -51t-56.5 -19q-23 0 -77 18q-4 1 -26 8.5t-36 7.5q-19 0 -33 -21q-11 -16 -22 -16q-3 0 -11 2l-10 4
q-16 6 -16 21zM562 515q-25 -24 -76 -28v-321q0 -69 6 -100t6 -38q0 -14 -32.5 -21.5t-57.5 -7.5q-17 0 -24 15t-10.5 31.5t-4.5 22.5q-26 -33 -66.5 -54t-84.5 -21q-153 0 -153 162v342q0 28 53 28h19q53 0 53 -28v-325q0 -75 75 -75q29 0 54.5 18t42.5 44v338q0 28 52 28
h50q50 0 50 35q1 10 -3.5 18.5t-13.5 20.5q-9 10 -10 17q0 12 11 17l29 20q5 5 14 5q18 0 32 -27.5t14 -52.5q0 -39 -25 -63z" />
    <glyph glyph-name="uhungarumlaut" unicode="&#x171;" 
d="M486 497v-331q0 -69 6 -100t6 -38q0 -14 -32.5 -21.5t-57.5 -7.5q-17 0 -24 15t-10.5 31.5t-4.5 22.5q-26 -33 -66.5 -54t-84.5 -21q-153 0 -153 162v342q0 28 53 28h19q53 0 53 -28v-325q0 -75 75 -75q29 0 54.5 18t42.5 44v338q0 28 52 28h20q52 0 52 -28zM321.5 730
q13.5 -3 13.5 -10q0 -6 -11.5 -20t-37.5 -42l-52 -57q-20 -22 -66 -22q-16 0 -22 3t-6 10q0 4 6.5 16.5t13.5 25.5t11 19q34 60 31 54q16 26 77 26q29 0 42.5 -3zM491.5 730q13.5 -3 13.5 -10q0 -6 -11.5 -20t-37.5 -42l-52 -57q-20 -22 -66 -22q-16 0 -22 3t-6 10
q0 4 6.5 16.5t13.5 25.5t11 19q34 60 31 54q16 26 77 26q29 0 42.5 -3z" />
    <glyph glyph-name="umacron" unicode="&#x16b;" 
d="M486 497v-331q0 -69 6 -100t6 -38q0 -14 -32.5 -21.5t-57.5 -7.5q-17 0 -24 15t-10.5 31.5t-4.5 22.5q-26 -33 -66.5 -54t-84.5 -21q-153 0 -153 162v342q0 28 53 28h19q53 0 53 -28v-325q0 -75 75 -75q29 0 54.5 18t42.5 44v338q0 28 52 28h20q52 0 52 -28zM408.5 679.5
q6.5 -8.5 6.5 -27.5v-13q0 -20 -6.5 -28.5t-20.5 -8.5h-218q-14 0 -20 9t-6 28v13q0 19 6 27.5t20 8.5h218q14 0 20.5 -8.5z" />
    <glyph glyph-name="uogonek" unicode="&#x173;" 
d="M581 -121q0 -30 -22.5 -41t-59.5 -11q-70 0 -94 33t-24 69q0 16 4 36.5t13 35.5q-12 5 -17.5 18.5t-8 28t-3.5 20.5q-26 -33 -66.5 -54t-84.5 -21q-153 0 -153 162v342q0 28 53 28h19q53 0 53 -28v-325q0 -75 75 -75q29 0 54.5 18t42.5 44v338q0 28 52 28h20q52 0 52 -28
v-331q0 -69 6 -100t6 -38q0 -8 -11 -14t-28 -9q0 -5 -5.5 -23t-5.5 -34q0 -32 18 -41.5t44 -9.5q15 0 28 5q14 4 22 4q21 0 21 -27z" />
    <glyph glyph-name="uring" unicode="&#x16f;" 
d="M486 497v-331q0 -69 6 -100t6 -38q0 -14 -32.5 -21.5t-57.5 -7.5q-17 0 -24 15t-10.5 31.5t-4.5 22.5q-26 -33 -66.5 -54t-84.5 -21q-153 0 -153 162v342q0 28 53 28h19q53 0 53 -28v-325q0 -75 75 -75q29 0 54.5 18t42.5 44v338q0 28 52 28h20q52 0 52 -28zM345.5 715.5
q27.5 -27.5 27.5 -66.5q0 -40 -27.5 -67t-66.5 -27q-40 0 -67 27t-27 67q0 39 27 66.5t67 27.5q39 0 66.5 -27.5zM250 677.5q-12 -12.5 -12 -29.5t12 -29t29 -12t29 12t12 29t-12 29.5t-29 12.5t-29 -12.5z" />
    <glyph glyph-name="utilde" unicode="&#x169;" 
d="M486 497v-331q0 -69 6 -100t6 -38q0 -14 -32.5 -21.5t-57.5 -7.5q-17 0 -24 15t-10.5 31.5t-4.5 22.5q-26 -33 -66.5 -54t-84.5 -21q-153 0 -153 162v342q0 28 53 28h19q53 0 53 -28v-325q0 -75 75 -75q29 0 54.5 18t42.5 44v338q0 28 52 28h20q52 0 52 -28zM238.5 687
q23.5 -6 46.5 -13q48 -15 68 -16q21 0 37 21q13 16 25 16q4 0 12 -2l10 -3q18 -6 18 -21q0 -6 -3 -14q-12 -32 -38.5 -51t-63.5 -19q-25 0 -85 18q-19 6 -38 11t-31 5q-21 0 -37 -21q-12 -16 -24 -16q-4 0 -12 2l-11 4q-18 6 -18 22q0 7 3 13q13 32 39.5 51t63.5 19
q15 0 38.5 -6z" />
    <glyph glyph-name="v" unicode="v" horiz-adv-x="485" 
d="M472 505q0 -6 -3 -17l-160 -471q-7 -19 -50 -19h-33q-44 0 -51 19l-159 472q-4 10 -4 16q0 20 54 20h23q45 0 50 -19l75 -234l22 -86l9 -36h4q15 77 28 121l75 235q7 19 51 19h17q52 0 52 -20z" />
    <glyph glyph-name="w" unicode="w" horiz-adv-x="747" 
d="M720 502q0 -2 -2 -14l-124 -471q-2 -9 -15.5 -14t-33.5 -5h-42q-44 0 -50 19l-68 267l-12 56l-12 -56l-67 -267q-2 -9 -15.5 -14t-33.5 -5h-42q-44 0 -50 19l-128 468q-3 9 -3 17q0 23 56 23q32 0 47 -4.5t18 -14.5l74 -285q3 -9 4.5 -17.5t3.5 -15.5q3 -17 8 -36
q10 48 17 72l71 281q4 20 49 20h18q43 0 49 -20l71 -285q12 -51 15 -68q4 14 10 44l6 25l75 285q6 19 52 19q54 0 54 -23z" />
    <glyph glyph-name="wacute" unicode="&#x1e83;" horiz-adv-x="747" 
d="M720 502q0 -2 -2 -14l-124 -471q-2 -9 -15.5 -14t-33.5 -5h-42q-44 0 -50 19l-68 267l-12 56l-12 -56l-67 -267q-2 -9 -15.5 -14t-33.5 -5h-42q-44 0 -50 19l-128 468q-3 9 -3 17q0 23 56 23q32 0 47 -4.5t18 -14.5l74 -285q3 -9 4.5 -17.5t3.5 -15.5q3 -17 8 -36
q10 48 17 72l71 281q4 20 49 20h18q43 0 49 -20l71 -285q12 -51 15 -68q4 14 10 44l6 25l75 285q6 19 52 19q54 0 54 -23zM496.5 730q13.5 -3 13.5 -10q0 -6 -11.5 -20t-37.5 -42l-52 -57q-20 -22 -66 -22q-16 0 -22 3t-6 10q0 4 6.5 16.5t13.5 25.5t11 19q34 60 31 54
q16 26 77 26q29 0 42.5 -3z" />
    <glyph glyph-name="wcircumflex" unicode="&#x175;" horiz-adv-x="747" 
d="M720 502q0 -2 -2 -14l-124 -471q-2 -9 -15.5 -14t-33.5 -5h-42q-44 0 -50 19l-68 267l-12 56l-12 -56l-67 -267q-2 -9 -15.5 -14t-33.5 -5h-42q-44 0 -50 19l-128 468q-3 9 -3 17q0 23 56 23q32 0 47 -4.5t18 -14.5l74 -285q3 -9 4.5 -17.5t3.5 -15.5q3 -17 8 -36
q10 48 17 72l71 281q4 20 49 20h18q43 0 49 -20l71 -285q12 -51 15 -68q4 14 10 44l6 25l75 285q6 19 52 19q54 0 54 -23zM416 714q13 -4 21 -16l62 -97q6 -9 6 -16q0 -12 -21 -12h-15q-40 0 -55 20l-41 53l-40 -52q-9 -12 -22.5 -16.5t-32.5 -4.5h-15q-21 0 -21 12
q0 7 6 16l62 97q7 12 20.5 16t34.5 4h16q22 0 35 -4z" />
    <glyph glyph-name="wdieresis" unicode="&#x1e85;" horiz-adv-x="747" 
d="M720 502q0 -2 -2 -14l-124 -471q-2 -9 -15.5 -14t-33.5 -5h-42q-44 0 -50 19l-68 267l-12 56l-12 -56l-67 -267q-2 -9 -15.5 -14t-33.5 -5h-42q-44 0 -50 19l-128 468q-3 9 -3 17q0 23 56 23q32 0 47 -4.5t18 -14.5l74 -285q3 -9 4.5 -17.5t3.5 -15.5q3 -17 8 -36
q10 48 17 72l71 281q4 20 49 20h18q43 0 49 -20l71 -285q12 -51 15 -68q4 14 10 44l6 25l75 285q6 19 52 19q54 0 54 -23zM344 674v-57q0 -28 -54 -28q-28 0 -40.5 7t-12.5 21v57q0 28 54 28q53 0 53 -28zM511 674v-57q0 -28 -54 -28q-28 0 -40.5 7t-12.5 21v57q0 28 54 28
q53 0 53 -28z" />
    <glyph glyph-name="wgrave" unicode="&#x1e81;" horiz-adv-x="747" 
d="M720 502q0 -2 -2 -14l-124 -471q-2 -9 -15.5 -14t-33.5 -5h-42q-44 0 -50 19l-68 267l-12 56l-12 -56l-67 -267q-2 -9 -15.5 -14t-33.5 -5h-42q-44 0 -50 19l-128 468q-3 9 -3 17q0 23 56 23q32 0 47 -4.5t18 -14.5l74 -285q3 -9 4.5 -17.5t3.5 -15.5q3 -17 8 -36
q10 48 17 72l71 281q4 20 49 20h18q43 0 49 -20l71 -285q12 -51 15 -68q4 14 10 44l6 25l75 285q6 19 52 19q54 0 54 -23zM378 707q24 -43 37 -64q12 -20 19 -33t7 -18q0 -7 -6 -10t-22 -3q-47 0 -67 22l-53 58q-25 28 -36 41.5t-11 19.5q0 7 13.5 10t42.5 3q62 0 76 -26z
" />
    <glyph glyph-name="x" unicode="x" horiz-adv-x="485" 
d="M469 507q0 -7 -10 -22l-148 -218l153 -228q10 -17 10 -23q0 -18 -57 -18h-23q-22 0 -35 3.5t-20 14.5l-82 127l-16 26l-16 -26l-84 -128q-7 -10 -20 -13.5t-35 -3.5h-20q-56 0 -56 18q0 7 10 22l155 228l-145 218q-10 17 -10 23q0 18 57 18h24q22 0 34.5 -3.5t19.5 -14.5
l73 -115q4 -5 18 -28l18 30l74 114q7 10 20.5 13.5t35.5 3.5h19q56 0 56 -18z" />
    <glyph glyph-name="y" unicode="y" horiz-adv-x="481" 
d="M472 505q0 -6 -3 -17l-240 -674q-8 -21 -52 -21h-17q-25 0 -37.5 5t-12.5 14q0 7 5 18l70 180l-168 479q-4 10 -4 16q0 20 54 20h24q43 0 50 -19l75 -216q12 -41 29 -114h3l10 41q14 56 20 73l74 216q7 19 51 19h16q53 0 53 -20z" />
    <glyph glyph-name="yacute" unicode="&#xfd;" horiz-adv-x="481" 
d="M472 505q0 -6 -3 -17l-240 -674q-8 -21 -52 -21h-17q-25 0 -37.5 5t-12.5 14q0 7 5 18l70 180l-168 479q-4 10 -4 16q0 20 54 20h24q43 0 50 -19l75 -216q12 -41 29 -114h3l10 41q14 56 20 73l74 216q7 19 51 19h16q53 0 53 -20zM363.5 730q13.5 -3 13.5 -10
q0 -6 -11.5 -20t-37.5 -42l-52 -57q-20 -22 -66 -22q-16 0 -22 3t-6 10q0 4 6.5 16.5t13.5 25.5t11 19q34 60 31 54q16 26 77 26q29 0 42.5 -3z" />
    <glyph glyph-name="ycircumflex" unicode="&#x177;" horiz-adv-x="481" 
d="M472 505q0 -6 -3 -17l-240 -674q-8 -21 -52 -21h-17q-25 0 -37.5 5t-12.5 14q0 7 5 18l70 180l-168 479q-4 10 -4 16q0 20 54 20h24q43 0 50 -19l75 -216q12 -41 29 -114h3l10 41q14 56 20 73l74 216q7 19 51 19h16q53 0 53 -20zM283 714q13 -4 21 -16l62 -97q6 -9 6 -16
q0 -12 -21 -12h-15q-40 0 -55 20l-41 53l-40 -52q-9 -12 -22.5 -16.5t-32.5 -4.5h-15q-21 0 -21 12q0 7 6 16l62 97q7 12 20.5 16t34.5 4h16q22 0 35 -4z" />
    <glyph glyph-name="ydieresis" unicode="&#xff;" horiz-adv-x="481" 
d="M472 505q0 -6 -3 -17l-240 -674q-8 -21 -52 -21h-17q-25 0 -37.5 5t-12.5 14q0 7 5 18l70 180l-168 479q-4 10 -4 16q0 20 54 20h24q43 0 50 -19l75 -216q12 -41 29 -114h3l10 41q14 56 20 73l74 216q7 19 51 19h16q53 0 53 -20zM211 674v-57q0 -28 -54 -28
q-28 0 -40.5 7t-12.5 21v57q0 28 54 28q53 0 53 -28zM378 674v-57q0 -28 -54 -28q-28 0 -40.5 7t-12.5 21v57q0 28 54 28q53 0 53 -28z" />
    <glyph glyph-name="uni1EF5" unicode="&#x1ef5;" horiz-adv-x="481" 
d="M472 505q0 -6 -3 -17l-240 -674q-8 -21 -52 -21h-17q-25 0 -37.5 5t-12.5 14q0 7 5 18l70 180l-168 479q-4 10 -4 16q0 20 54 20h24q43 0 50 -19l75 -216q12 -41 29 -114h3l10 41q14 56 20 73l74 216q7 19 51 19h16q53 0 53 -20zM412 -153v-57q0 -28 -54 -28
q-28 0 -40.5 7t-12.5 21v57q0 28 54 28q53 0 53 -28z" />
    <glyph glyph-name="ygrave" unicode="&#x1ef3;" horiz-adv-x="481" 
d="M472 505q0 -6 -3 -17l-240 -674q-8 -21 -52 -21h-17q-25 0 -37.5 5t-12.5 14q0 7 5 18l70 180l-168 479q-4 10 -4 16q0 20 54 20h24q43 0 50 -19l75 -216q12 -41 29 -114h3l10 41q14 56 20 73l74 216q7 19 51 19h16q53 0 53 -20zM245 707q24 -43 37 -64q12 -20 19 -33
t7 -18q0 -7 -6 -10t-22 -3q-47 0 -67 22l-53 58q-25 28 -36 41.5t-11 19.5q0 7 13.5 10t42.5 3q62 0 76 -26z" />
    <glyph glyph-name="uni1EF7" unicode="&#x1ef7;" horiz-adv-x="481" 
d="M472 505q0 -6 -3 -17l-240 -674q-8 -21 -52 -21h-17q-25 0 -37.5 5t-12.5 14q0 7 5 18l70 180l-168 479q-4 10 -4 16q0 20 54 20h24q43 0 50 -19l75 -216q12 -41 29 -114h3l10 41q14 56 20 73l74 216q7 19 51 19h16q53 0 53 -20zM267 686.5q-10 6.5 -24 6.5
q-16 0 -28.5 -6t-14.5 -6q-6 0 -17 14.5t-11 24.5t26.5 20.5t52.5 10.5q46 0 75 -19.5t29 -56.5q0 -26 -19.5 -51t-43.5 -41t-34 -16q-13 0 -29.5 7.5t-16.5 13.5q0 7 6 13t20 17q19 15 29 26t10 25q0 11 -10 17.5z" />
    <glyph glyph-name="uni1EF9" unicode="&#x1ef9;" horiz-adv-x="481" 
d="M472 505q0 -6 -3 -17l-240 -674q-8 -21 -52 -21h-17q-25 0 -37.5 5t-12.5 14q0 7 5 18l70 180l-168 479q-4 10 -4 16q0 20 54 20h24q43 0 50 -19l75 -216q12 -41 29 -114h3l10 41q14 56 20 73l74 216q7 19 51 19h16q53 0 53 -20zM200.5 687q23.5 -6 46.5 -13
q48 -15 68 -16q21 0 37 21q13 16 25 16q4 0 12 -2l10 -3q18 -6 18 -21q0 -6 -3 -14q-12 -32 -38.5 -51t-63.5 -19q-25 0 -85 18q-19 6 -38 11t-31 5q-21 0 -37 -21q-12 -16 -24 -16q-4 0 -12 2l-11 4q-18 6 -18 22q0 7 3 13q13 32 39.5 51t63.5 19q15 0 38.5 -6z" />
    <glyph glyph-name="z" unicode="z" horiz-adv-x="489" 
d="M444 498.5q9 -24.5 9 -43.5q0 -7 -2 -13l-251 -341h230q14 0 20 -10.5t6 -32.5v-15q0 -22 -6 -32.5t-20 -10.5h-373q-8 0 -17 24t-9 43q0 9 3 13l252 342h-211q-14 0 -20.5 10t-6.5 33v15q0 23 6.5 33t20.5 10h353q7 0 16 -24.5z" />
    <glyph glyph-name="zacute" unicode="&#x17a;" horiz-adv-x="489" 
d="M444 498.5q9 -24.5 9 -43.5q0 -7 -2 -13l-251 -341h230q14 0 20 -10.5t6 -32.5v-15q0 -22 -6 -32.5t-20 -10.5h-373q-8 0 -17 24t-9 43q0 9 3 13l252 342h-211q-14 0 -20.5 10t-6.5 33v15q0 23 6.5 33t20.5 10h353q7 0 16 -24.5zM367.5 730q13.5 -3 13.5 -10
q0 -6 -11.5 -20t-37.5 -42l-52 -57q-20 -22 -66 -22q-16 0 -22 3t-6 10q0 4 6.5 16.5t13.5 25.5t11 19q34 60 31 54q16 26 77 26q29 0 42.5 -3z" />
    <glyph glyph-name="zcaron" unicode="&#x17e;" horiz-adv-x="489" 
d="M444 498.5q9 -24.5 9 -43.5q0 -7 -2 -13l-251 -341h230q14 0 20 -10.5t6 -32.5v-15q0 -22 -6 -32.5t-20 -10.5h-373q-8 0 -17 24t-9 43q0 9 3 13l252 342h-211q-14 0 -20.5 10t-6.5 33v15q0 23 6.5 33t20.5 10h353q7 0 16 -24.5zM377 708q0 -6 -6 -15l-62 -97
q-8 -12 -21 -16t-35 -4h-16q-21 0 -34.5 4t-20.5 16l-62 97q-6 9 -6 16q0 11 21 11h15q39 0 55 -20l40 -52l41 52q14 20 55 20h15q21 0 21 -12z" />
    <glyph glyph-name="zdotaccent" unicode="&#x17c;" horiz-adv-x="489" 
d="M444 498.5q9 -24.5 9 -43.5q0 -7 -2 -13l-251 -341h230q14 0 20 -10.5t6 -32.5v-15q0 -22 -6 -32.5t-20 -10.5h-373q-8 0 -17 24t-9 43q0 9 3 13l252 342h-211q-14 0 -20.5 10t-6.5 33v15q0 23 6.5 33t20.5 10h353q7 0 16 -24.5zM299 674v-57q0 -28 -54 -28
q-28 0 -40.5 7t-12.5 21v57q0 28 54 28q53 0 53 -28z" />
    <glyph glyph-name="uni1E93" unicode="&#x1e93;" horiz-adv-x="489" 
d="M444 498.5q9 -24.5 9 -43.5q0 -7 -2 -13l-251 -341h230q14 0 20 -10.5t6 -32.5v-15q0 -22 -6 -32.5t-20 -10.5h-373q-8 0 -17 24t-9 43q0 9 3 13l252 342h-211q-14 0 -20.5 10t-6.5 33v15q0 23 6.5 33t20.5 10h353q7 0 16 -24.5zM296 -108v-57q0 -28 -54 -28
q-28 0 -40.5 7t-12.5 21v57q0 28 54 28q53 0 53 -28z" />
    <glyph glyph-name="iacute_j.loclNLD" horiz-adv-x="541" 
d="M255.5 730q13.5 -3 13.5 -10q0 -6 -11.5 -20t-37.5 -42l-52 -57q-20 -22 -66 -22q-16 0 -22 3t-6 10q0 4 6.5 16.5t13.5 25.5t11 19q34 59 31 54q16 26 77 26q29 0 42.5 -3zM530.5 730q13.5 -3 13.5 -10q0 -6 -11.5 -20t-37.5 -42l-52 -57q-20 -22 -66 -22q-16 0 -22 3
t-6 10q0 4 6.5 16.5t13.5 25.5t11 19q34 60 31 54q16 26 77 26q29 0 42.5 -3zM196 497v-471q0 -28 -53 -28h-19q-53 0 -53 28v471q0 28 53 28h19q53 0 53 -28zM471 497v-556q0 -78 -40 -115.5t-99 -37.5q-48 0 -70.5 9.5t-22.5 34.5q0 17 9 39t21 22q5 0 15 -2t20 -2
q21 0 32 12.5t11 41.5v554q0 28 52 28h20q52 0 52 -28z" />
    <glyph glyph-name="y.loclGUA" 
d="M434.5 -139q-52.5 -73 -166.5 -73q-50 0 -92.5 9.5t-68 26t-27.5 35.5q-2 32 -2 39q0 36 12 36q3 0 26 -12.5t53.5 -22.5t68.5 -10q62 0 95.5 39t33.5 116v23q-26 -32 -65.5 -53t-83.5 -21q-153 0 -153 162v342q0 28 53 28h19q53 0 53 -28v-325q0 -75 75 -75
q29 0 54.5 18t42.5 44v338q0 28 52 28h20q52 0 52 -28v-402q1 -161 -51.5 -234z" />
    </font>
</defs>
</svg>
